<?xml version="1.0" standalone="no"?>
<!DOCTYPE svg PUBLIC "-//W3C//DTD SVG 1.1//EN" "http://www.w3.org/Graphics/SVG/1.1/DTD/svg11.dtd">
<svg xmlns="http://www.w3.org/2000/svg">
<defs >
<font id="Montserrat" horiz-adv-x="630" ><font-face
    font-family="Montserrat Thin Light"
    units-per-em="1000"
    panose-1="0 0 0 0 0 0 0 0 0 0"
    ascent="968"
    descent="-251"
    alphabetic="0" />
<glyph unicode=" " horiz-adv-x="257" />
<glyph unicode="!" horiz-adv-x="252" d="M95 201L185 700H243L133 201H95ZM80 -4Q64 -4 52 8T40 35Q40 54 52 66T82 78Q100 78 111 67T123 39Q123 27 117 17T102 2T80 -4Z" />
<glyph unicode="&quot;" horiz-adv-x="357" d="M114 442L162 700H208L153 442H114ZM276 442L324 700H370L315 442H276Z" />
<glyph unicode="#" horiz-adv-x="690" d="M359 0L584 700H626L401 0H359ZM20 198L28 238H623L615 198H20ZM100 0L324 700H366L141 0H100ZM104 462L112 502H707L699 462H104Z" />
<glyph unicode="$" horiz-adv-x="609" d="M213 -120L401 820H437L249 -120H213ZM265 -5Q214 -5 166 7T79 41T18 88L45 127Q67 102 102 82T181 51T269 40Q334 40 384 58T463 110T491 195Q491 232 471 255T418 293T346 318T267 342T195 373T142 422T121 498Q121
564 156 610T253 680T392 705Q452 705 508 690T603 644L579 602Q542 630 493 645T390 660Q326 660 277 642T200 588T172 503Q172 466 192 443T244 404T317 377T396 354T468 323T521 275T542 201Q542 134 506 88T407 19T265 -5Z" />
<glyph unicode="%" horiz-adv-x="817" d="M95 0L710 700H757L142 0H95ZM224 327Q163 327 128 366T92 474Q92 533 114 585T178 670T276 703Q337 703 372 664T408 556Q408 497 386 445T322 360T224 327ZM226 360Q273 360 305 389T353 463T370 553Q370 609 345 639T274
670Q228 670 196 641T147 567T130 477Q130 421 155 391T226 360ZM576 -4Q516 -4 480 35T444 143Q444 202 466 254T530 339T629 372Q690 372 725 333T760 225Q760 166 738 114T675 29T576 -4ZM579 29Q626 29 658 58T706 132T723 222Q723 278 698 308T626 339Q580
339 548 310T499 236T482 146Q482 90 507 60T579 29Z" />
<glyph unicode="&amp;" horiz-adv-x="655" d="M235 -5Q172 -5 127 14T56 69T31 151Q31 199 55 239T134 319T277 401Q355 438 399 466T462 521T480 584Q480 618 454 641T379 665Q318 665 281 632T243 542Q243 513 257 482T299 413L596 21L561 -10L256 392Q228 430
212 465T196 537Q196 588 219 625T284 683T381 704Q424 704 456 690T506 649T524 587Q524 542 502 507T429 439T296 366Q215 327 168 294T101 229T81 157Q81 104 122 71T238 37Q309 37 371 66T483 156T568 307L608 294Q569 193 513 127T387 28T235 -5Z" />
<glyph unicode="&apos;" horiz-adv-x="194" d="M114 442L162 700H208L153 442H114Z" />
<glyph unicode="(" horiz-adv-x="321" d="M137 -194Q123 -156 114 -113T99 -25T94 64Q94 157 109 250T155 432T226 600T319 742H369Q318 678 276 598T204 428T157 245T141 62Q141 -3 151 -65T182 -194H137Z" />
<glyph unicode=")" horiz-adv-x="321" d="M13 -194Q64 -130 106 -50T178 120T225 303T241 486Q241 551 231 613T200 742H245Q259 705 268 662T283 573T288 484Q288 391 273 298T227 116T156 -52T63 -194H13Z" />
<glyph unicode="*" horiz-adv-x="375" d="M428 637L271 557L272 572L396 493L375 462L252 543L261 546L230 389H195L227 546L238 541L84 461L70 492L227 572L225 560L101 639L122 670L244 589L235 585L265 742H300L269 585L260 589L414 670L428 637Z" />
<glyph unicode="+" horiz-adv-x="569" d="M238 143L321 557H366L283 143H238ZM85 328L94 371H519L511 328H85Z" />
<glyph unicode="," horiz-adv-x="200" d="M-23 -143L50 26L54 -4Q38 -4 26 8T13 37Q13 56 26 68T57 81Q74 81 86 70T98 40Q98 29 94 20T83 -3L13 -143H-23Z" />
<glyph unicode="-" horiz-adv-x="381" d="M59 246L68 291H325L316 246H59Z" />
<glyph unicode="." horiz-adv-x="200" d="M54 -4Q38 -4 26 8T13 37Q13 56 26 68T57 81Q74 81 86 70T98 40Q98 27 92 17T76 2T54 -4Z" />
<glyph unicode="/" horiz-adv-x="320" d="M-96 -100L420 842H469L-46 -100H-96Z" />
<glyph unicode="0" horiz-adv-x="658" d="M283 -5Q214 -5 165 25T89 111T62 245Q62 333 86 415T155 563T264 667T410 705Q479 705 528 675T604 589T630 455Q630 367 606 285T538 137T429 33T283 -5ZM288 42Q358 42 412 78T503 175T560 309T580 454Q580 552 534
605T405 658Q335 658 281 622T189 525T132 391T113 246Q113 148 159 95T288 42Z" />
<glyph unicode="1" horiz-adv-x="353" d="M128 0L263 676L281 654H88L97 700H319L179 0H128Z" />
<glyph unicode="2" horiz-adv-x="563" d="M-12 0L-4 36L354 329Q407 372 436 406T478 472T491 537Q491 593 452 626T328 659Q269 659 216 638T125 577L89 608Q132 654 196 679T334 705Q403 705 449 685T519 628T542 543Q542 503 528 466T481 388T389 299L51 24L35
46H479L470 0H-12Z" />
<glyph unicode="3" horiz-adv-x="558" d="M217 -5Q136 -5 74 21T-19 90L12 128Q37 91 91 67T220 42Q289 42 339 63T416 125T443 218Q443 284 399 318T261 352H223L231 389L507 673L514 654H118L127 700H565L559 664L281 379L260 395H272Q345 395 394 375T469 315T495
220Q495 154 460 103T363 24T217 -5Z" />
<glyph unicode="4" horiz-adv-x="654" d="M30 194L37 231L506 700H567L99 231L68 239H635L626 194H30ZM389 0L428 194L438 239L473 410H522L440 0H389Z" />
<glyph unicode="5" horiz-adv-x="558" d="M231 -5Q150 -5 88 21T-5 90L26 128Q52 91 106 67T235 42Q340 42 399 90T458 221Q458 286 410 323T248 361H93L197 700H568L559 654H209L242 678L149 381L127 407H257Q388 407 448 358T509 226Q509 155 475 104T379 24T231 -5Z" />
<glyph unicode="6" horiz-adv-x="602" d="M313 -5Q240 -5 183 25T94 115T62 266Q62 326 75 388T115 506T187 608T294 679T440 705Q487 705 528 697T602 668L576 626Q548 645 512 652T437 660Q366 660 313 638T223 577T162 489T127 386T115 279Q115 258 115 247T116
226L94 227Q109 295 146 336T233 395T337 414Q401 414 451 391T530 325T560 219Q560 150 529 100T442 22T313 -5ZM312 39Q401 39 455 86T509 215Q509 291 458 330T328 370Q267 370 221 347T150 284T124 196Q124 158 145 122T208 63T312 39Z" />
<glyph unicode="7" horiz-adv-x="581" d="M127 0L567 676L583 654H137L167 678L135 520H85L121 700H624L617 664L185 0H127Z" />
<glyph unicode="8" horiz-adv-x="632" d="M288 -5Q210 -5 154 17T67 80T37 177Q37 240 70 285T165 356T314 381Q395 381 451 360T537 300T567 205Q567 141 533 94T436 21T288 -5ZM290 39Q396 39 456 83T516 204Q516 269 462 306T312 344Q207 344 148 300T88 180Q88
114 141 77T290 39ZM358 350Q285 350 234 369T156 425T129 510Q129 570 160 614T248 681T381 705Q450 705 501 685T581 628T610 538Q610 481 581 439T495 373T358 350ZM360 386Q453 386 506 426T559 532Q559 592 511 626T378 661Q288 661 235 621T181 513Q181 455
227 421T360 386Z" />
<glyph unicode="9" horiz-adv-x="602" d="M325 705Q399 705 455 675T543 585T575 434Q575 374 563 312T522 194T450 92T343 21T197 -5Q151 -5 110 4T36 32L61 74Q90 55 125 48T201 40Q271 40 324 62T414 123T475 211T510 314T522 421Q523 442 523 453T522 474L543
473Q530 406 493 365T405 305T300 286Q238 286 187 309T107 375T77 481Q77 551 108 601T196 678T325 705ZM325 661Q236 661 183 614T129 485Q129 410 179 370T309 330Q371 330 416 353T487 416T513 504Q513 543 492 578T430 637T325 661Z" />
<glyph unicode=":" horiz-adv-x="200" d="M143 441Q127 441 115 453T102 482Q102 501 115 513T146 526Q163 526 175 515T187 485Q187 472 181 462T165 447T143 441ZM54 -4Q38 -4 26 8T13 37Q13 56 26 68T57 81Q74 81 86 70T98 40Q98 27 92 17T76 2T54 -4Z" />
<glyph unicode=";" horiz-adv-x="200" d="M143 441Q127 441 115 453T102 482Q102 501 115 513T146 526Q163 526 175 515T187 485Q187 472 181 462T165 447T143 441ZM-23 -143L50 26L54 -4Q38 -4 26 8T13 37Q13 56 26 68T57 81Q74 81 86 70T98 40Q98 29 94 20T83
-3L13 -143H-23Z" />
<glyph unicode="&lt;" horiz-adv-x="569" d="M553 547L543 499L106 336L110 359L483 196L475 153L84 326L94 374L553 547Z" />
<glyph unicode="=" horiz-adv-x="569" d="M109 441L117 484H542L533 441H109ZM63 216L72 258H497L488 216H63Z" />
<glyph unicode="&gt;" horiz-adv-x="569" d="M52 153L62 201L498 364L493 341L121 504L130 547L520 374L510 326L52 153Z" />
<glyph unicode="?" horiz-adv-x="562" d="M229 201Q238 248 260 280T310 337T369 382T426 425T468 477T484 547Q484 601 444 630T331 660Q260 660 208 639T116 577L83 609Q127 656 190 680T337 705Q399 705 443 687T511 636T535 554Q535 506 519 472T477 413T421
367T362 324T312 272T281 201H229ZM221 -4Q205 -4 193 8T181 35Q181 54 193 66T223 78Q241 78 252 67T264 39Q264 27 258 17T243 2T221 -4Z" />
<glyph unicode="@" horiz-adv-x="1033" d="M436 -199Q313 -199 226 -153T91 -23T44 169Q44 278 81 374T189 545T359 662T583 705Q713 705 803 660T940 533T987 343Q987 274 971 212T925 101T858 24T776 -4Q728 -4 703 25T687 103L704 183L728 249L734 343L768
511H814L735 115Q727 73 742 55T787 37Q820 37 849 63T900 132T935 230T948 343Q948 440 907 513T783 626T579 667Q466 667 375 628T220 521T120 362T85 171Q85 73 126 -1T246 -118T441 -160Q495 -160 546 -149T636 -116L645 -154Q603 -175 549 -187T436 -199ZM470
-4Q405 -4 356 21T279 95T252 207Q252 273 273 328T332 426T423 491T540 515Q642 515 696 460T752 306Q753 220 719 150T621 38T470 -4ZM480 38Q550 38 604 72T690 166T722 301Q722 383 674 428T539 473Q470 473 416 439T330 346T299 210Q299 128 347 83T480 38Z"
/>
<glyph unicode="A" horiz-adv-x="705" d="M-47 0L415 700H466L648 0H596L426 669H447L10 0H-47ZM110 197L136 240H554L563 197H110Z" />
<glyph unicode="B" horiz-adv-x="752" d="M70 0L210 700H500Q598 700 654 663T710 554Q710 486 677 440T589 371T469 348L490 366Q578 366 629 329T680 216Q680 146 645 98T543 25T385 0H70ZM130 44H390Q505 44 567 88T629 214Q629 279 584 306T452 333H178L187
377H435Q500 377 550 396T628 452T657 546Q657 601 614 628T491 656H252L130 44Z" />
<glyph unicode="C" horiz-adv-x="716" d="M389 -5Q286 -5 214 31T105 132T67 283Q67 368 96 444T180 579T313 671T491 705Q573 705 636 680T734 609L698 576Q664 617 612 637T487 658Q402 658 334 629T218 548T144 429T118 285Q118 213 149 158T241 73T393 42Q465
42 523 63T624 126L655 91Q610 46 540 21T389 -5Z" />
<glyph unicode="D" horiz-adv-x="826" d="M70 0L210 700H470Q575 700 648 665T758 567T796 417Q796 326 766 249T678 117T540 31T360 0H70ZM130 46H363Q480 46 565 93T697 224T744 415Q744 487 713 541T620 624T464 654H252L130 46Z" />
<glyph unicode="E" horiz-adv-x="669" d="M190 378H569L560 333H181L190 378ZM130 46H562L552 0H70L210 700H678L668 654H252L130 46Z" />
<glyph unicode="F" horiz-adv-x="631" d="M185 355H564L555 309H176L185 355ZM121 0H70L210 700H678L668 654H252L121 0Z" />
<glyph unicode="G" horiz-adv-x="773" d="M389 -5Q286 -5 215 31T105 132T67 283Q67 368 96 444T180 579T314 671T492 705Q576 705 641 680T743 608L707 576Q671 618 617 638T489 658Q404 658 336 629T219 549T144 429T118 285Q118 213 149 158T241 73T395 42Q461
42 515 63T615 125L636 84Q590 43 526 19T389 -5ZM588 90L640 347H689L636 84L588 90Z" />
<glyph unicode="H" horiz-adv-x="814" d="M729 700H780L640 0H589L729 700ZM121 0H70L210 700H261L121 0ZM662 333H181L190 378H671L662 333Z" />
<glyph unicode="I" horiz-adv-x="295" d="M70 0L210 700H261L121 0H70Z" />
<glyph unicode="J" horiz-adv-x="491" d="M147 -5Q83 -5 36 22T-34 95L4 127Q23 87 60 64T150 41Q214 41 254 77T313 204L403 654H145L154 700H463L363 201Q348 126 320 81T248 15T147 -5Z" />
<glyph unicode="K" horiz-adv-x="703" d="M151 178L160 245L693 700H762L383 376L353 351L151 178ZM70 0L210 700H261L121 0H70ZM583 0L335 360L372 393L642 0H583Z" />
<glyph unicode="L" horiz-adv-x="585" d="M70 0L210 700H261L130 46H533L523 0H70Z" />
<glyph unicode="M" horiz-adv-x="956" d="M70 0L210 700H252L469 138L447 141L876 700H921L781 0H731L856 624L871 622L463 93H438L231 625L244 623L120 0H70Z" />
<glyph unicode="N" horiz-adv-x="814" d="M70 0L210 700H252L619 61L602 65L729 700H780L640 0H597L231 639L248 635L121 0H70Z" />
<glyph unicode="O" horiz-adv-x="838" d="M387 -5Q284 -5 213 31T104 132T67 283Q67 368 96 444T179 579T311 671T486 705Q589 705 661 669T770 568T807 417Q807 332 778 256T694 121T562 29T387 -5ZM392 42Q475 42 542 71T656 152T729 271T755 415Q755 488 724
542T633 627T482 658Q399 658 332 629T218 548T144 429T118 285Q118 213 149 158T241 73T392 42Z" />
<glyph unicode="P" horiz-adv-x="715" d="M70 0L210 700H454Q570 700 634 650T698 507Q698 417 659 355T548 261T376 229H144L172 253L121 0H70ZM171 250L153 275H376Q505 275 575 332T646 503Q646 576 596 615T451 654H230L257 680L171 250Z" />
<glyph unicode="Q" horiz-adv-x="838" d="M387 -5Q284 -5 213 31T104 132T67 283Q67 368 96 444T179 579T311 671T486 705Q589 705 661 669T770 568T807 417Q807 332 778 256T694 121T562 29T387 -5ZM586 -133Q517 -133 461 -97T359 7L418 20Q452 -35 494 -62T588
-90Q629 -90 664 -74T727 -25L752 -58Q721 -95 678 -114T586 -133ZM392 42Q475 42 542 71T656 152T729 271T755 415Q755 488 724 542T633 627T482 658Q399 658 332 629T218 548T144 429T118 285Q118 213 149 158T241 73T392 42Z" />
<glyph unicode="R" horiz-adv-x="720" d="M70 0L210 700H455Q571 700 634 650T698 507Q698 417 659 356T548 262T377 230H145L172 253L121 0H70ZM557 0L414 254H470L613 0H557ZM171 250L154 275H377Q505 275 576 332T647 503Q647 576 597 615T452 654H230L257
679L171 250Z" />
<glyph unicode="S" horiz-adv-x="609" d="M265 -5Q214 -5 166 7T79 41T18 88L45 127Q67 102 102 82T181 51T269 40Q334 40 384 58T463 110T491 195Q491 232 471 255T418 293T346 318T267 342T195 373T142 422T121 498Q121 564 156 610T253 680T392 705Q452 705
508 690T603 644L579 602Q542 630 493 645T390 660Q326 660 277 642T200 588T172 503Q172 466 192 443T244 404T317 377T396 354T468 323T521 275T542 201Q542 134 506 88T407 19T265 -5Z" />
<glyph unicode="T" horiz-adv-x="563" d="M204 0L334 654H82L92 700H647L638 654H386L255 0H204Z" />
<glyph unicode="U" horiz-adv-x="793" d="M357 -5Q262 -5 204 35T126 143T123 295L204 700H255L174 295Q163 243 168 197T195 116T258 62T363 42Q441 42 494 70T581 154T630 285L713 700H764L681 282Q654 145 574 70T357 -5Z" />
<glyph unicode="V" horiz-adv-x="687" d="M266 0L93 700H147L310 32H280L713 700H769L316 0H266Z" />
<glyph unicode="W" horiz-adv-x="1098" d="M225 0L127 700H178L271 32H246L612 700H660L757 32H732L1094 700H1146L769 0H715L620 645L634 646L279 0H225Z" />
<glyph unicode="X" horiz-adv-x="642" d="M-32 0L324 377L321 348L127 700H181L357 382L334 386L630 700H690L359 350L360 375L568 0H514L327 339L347 337L30 0H-32Z" />
<glyph unicode="Y" horiz-adv-x="625" d="M234 0L285 255L291 220L92 700H145L324 265L298 264L651 700H708L318 218L336 255L285 0H234Z" />
<glyph unicode="Z" horiz-adv-x="646" d="M-6 0L2 36L624 674L627 654H132L141 700H688L681 664L57 26L55 46H568L558 0H-6Z" />
<glyph unicode="[" horiz-adv-x="306" d="M30 -194L217 742H378L370 699H259L89 -151H200L192 -194H30Z" />
<glyph unicode="\" horiz-adv-x="320" d="M271 -100H227L83 842H127L271 -100Z" />
<glyph unicode="]" horiz-adv-x="306" d="M94 -194H-67L-58 -151H53L222 699H111L120 742H281L94 -194Z" />
<glyph unicode="^" horiz-adv-x="570" d="M66 144L322 556H366L457 144H416L332 536H353L112 144H66Z" />
<glyph unicode="_" horiz-adv-x="500" d="M-59 -36L-52 0H448L441 -36H-59Z" />
<glyph unicode="`" horiz-adv-x="600" d="M372 607L238 725H310L426 607H372Z" />
<glyph unicode="a" horiz-adv-x="675" d="M270 -4Q203 -4 152 22T73 97T45 213Q45 281 66 338T128 437T222 502T340 526Q409 526 457 502T530 431T556 318Q557 225 522 152T422 38T270 -4ZM280 41Q351 41 406 75T493 169T525 306Q525 390 477 435T340 481Q270
481 215 447T127 352T95 216Q95 133 143 87T280 41ZM470 0L502 163L531 254L538 350L572 522H622L518 0H470Z" />
<glyph unicode="b" horiz-adv-x="675" d="M53 0L201 742H251L175 358L145 268L137 177L102 0H53ZM335 -4Q267 -4 219 20T145 91T119 204Q119 274 139 333T197 435T287 502T405 526Q473 526 523 500T602 425T631 309Q631 241 609 184T548 85T454 20T335 -4ZM336
41Q407 41 462 75T548 169T580 306Q580 390 532 435T395 481Q325 481 270 447T182 353T150 216Q150 133 199 87T336 41Z" />
<glyph unicode="c" horiz-adv-x="555" d="M280 -4Q208 -4 155 22T74 98T45 213Q45 304 83 374T190 485T345 526Q415 526 465 502T543 428L502 403Q478 443 438 462T342 481Q270 481 215 447T127 352T95 216Q95 133 144 87T284 41Q336 41 381 60T457 117L492 89Q458
45 402 21T280 -4Z" />
<glyph unicode="d" horiz-adv-x="675" d="M270 -4Q203 -4 152 22T73 97T45 213Q45 281 66 338T128 437T222 502T340 526Q409 526 457 502T530 431T556 318Q556 248 536 189T478 87T388 20T270 -4ZM280 41Q351 41 406 75T493 169T525 306Q525 390 477 435T340 481Q270
481 215 447T127 352T95 216Q95 133 143 87T280 41ZM470 0L502 163L530 254L538 350L616 742H666L518 0H470Z" />
<glyph unicode="e" horiz-adv-x="598" d="M283 -4Q210 -4 156 22T74 98T45 215Q45 304 82 374T184 485T330 526Q399 526 448 500T524 426T552 308Q552 293 550 278T546 250H83L90 289H522L502 272Q513 341 493 387T431 458T329 483Q261 483 208 449T124 355T94
217Q94 132 143 87T287 41Q343 41 389 59T466 111L489 76Q455 39 401 18T283 -4Z" />
<glyph unicode="f" horiz-adv-x="328" d="M64 0L184 601Q198 672 240 709T351 746Q382 746 409 737T452 711L428 675Q399 703 350 703Q301 703 272 677T232 594L215 510L211 488L114 0H64ZM63 479L71 522H384L376 479H63Z" />
<glyph unicode="g" horiz-adv-x="682" d="M239 -198Q167 -198 109 -177T13 -116L45 -79Q77 -114 128 -133T243 -153Q348 -153 406 -104T485 48L515 198L540 273L547 351L581 522H629L536 56Q510 -78 438 -138T239 -198ZM275 19Q206 19 155 44T75 116T47 227Q47
291 69 345T130 440T224 503T344 526Q410 526 459 503T535 436T563 325Q564 239 528 170T428 60T275 19ZM284 64Q356 64 411 96T498 186T531 316Q531 394 482 437T344 481Q273 481 218 449T130 359T97 229Q97 151 146 108T284 64Z" />
<glyph unicode="h" horiz-adv-x="673" d="M402 526Q473 526 517 499T578 421T581 302L521 0H471L531 302Q548 385 513 433T389 481Q300 481 240 432T160 284L103 0H53L201 742H251L177 371L163 384Q200 458 262 492T402 526Z" />
<glyph unicode="i" horiz-adv-x="261" d="M53 0L157 522H207L103 0H53ZM213 649Q197 649 186 660T175 686Q175 704 187 717T219 730Q236 730 247 719T258 693Q258 674 245 662T213 649Z" />
<glyph unicode="j" horiz-adv-x="266" d="M-66 -198Q-98 -198 -125 -189T-172 -164L-146 -126Q-114 -155 -64 -155Q-18 -155 9 -130T48 -48L162 522H212L97 -52Q69 -198 -66 -198ZM217 649Q201 649 190 660T179 686Q179 704 191 717T223 730Q240 730 251 719T262
693Q262 674 249 662T217 649Z" />
<glyph unicode="k" horiz-adv-x="576" d="M122 145L131 207L536 522H609L329 305L301 283L122 145ZM53 0L201 742H251L103 0H53ZM465 0L292 286L327 322L523 0H465Z" />
<glyph unicode="l" horiz-adv-x="261" d="M53 0L201 742H251L103 0H53Z" />
<glyph unicode="m" horiz-adv-x="1064" d="M796 526Q867 526 910 499T970 421T972 302L911 0H861L922 302Q938 385 905 433T786 481Q702 481 644 435T567 296L507 0H457L518 302Q534 385 501 433T382 481Q296 481 238 431T160 284L103 0H53L157 522H206L176 371L163
384Q200 458 260 492T395 526Q451 526 490 507T551 453T574 369L549 375Q587 451 651 488T796 526Z" />
<glyph unicode="n" horiz-adv-x="673" d="M402 526Q473 526 517 499T578 421T581 302L521 0H471L531 302Q548 385 513 433T389 481Q300 481 240 432T160 284L103 0H53L157 522H206L176 371L163 384Q200 458 262 492T402 526Z" />
<glyph unicode="o" horiz-adv-x="620" d="M276 -4Q206 -4 154 22T74 98T45 213Q45 303 83 373T189 485T344 526Q415 526 466 500T546 425T575 309Q575 219 537 149T431 37T276 -4ZM280 41Q351 41 406 75T493 169T525 306Q525 390 477 435T340 481Q270 481 215
447T127 352T95 216Q95 133 143 87T280 41Z" />
<glyph unicode="p" horiz-adv-x="675" d="M335 -4Q267 -4 219 20T145 91T119 204Q119 298 154 370T254 484T405 526Q473 526 523 500T602 425T631 309Q631 241 609 184T548 85T454 20T335 -4ZM14 -194L157 522H206L173 359L145 268L138 172L64 -194H14ZM336 41Q407
41 462 75T548 169T580 306Q580 390 532 435T395 481Q325 481 270 447T182 353T150 216Q150 133 199 87T336 41Z" />
<glyph unicode="q" horiz-adv-x="675" d="M270 -4Q203 -4 152 22T73 97T45 213Q45 281 66 338T128 437T222 502T340 526Q409 526 457 502T530 431T556 318Q557 225 522 152T422 38T270 -4ZM280 41Q351 41 406 75T493 169T525 306Q525 390 477 435T340 481Q270
481 215 447T127 352T95 216Q95 133 143 87T280 41ZM429 -194L501 164L530 254L538 345L574 522H622L479 -194H429Z" />
<glyph unicode="r" horiz-adv-x="394" d="M53 0L157 522H206L174 365L168 383Q202 454 260 490T406 526L397 477Q393 477 389 477T381 478Q293 478 236 426T157 268L103 0H53Z" />
<glyph unicode="s" horiz-adv-x="478" d="M196 -4Q134 -4 79 14T-7 62L20 101Q49 73 97 57T200 40Q281 40 325 69T370 148Q370 182 349 199T293 225T220 242T147 262T91 299T69 368Q69 416 96 451T172 506T287 526Q336 526 383 513T459 475L436 436Q406 459 366
470T283 482Q206 482 162 452T118 373Q118 339 140 321T196 294T269 278T342 258T398 221T420 153Q420 104 392 69T314 15T196 -4Z" />
<glyph unicode="t" horiz-adv-x="398" d="M208 -4Q165 -4 136 14T95 66T93 147L191 636H241L144 151Q133 96 151 68T220 39Q244 39 265 46T305 68L320 31Q296 12 267 4T208 -4ZM63 479L71 522H384L376 479H63Z" />
<glyph unicode="u" horiz-adv-x="669" d="M269 -4Q200 -4 156 23T95 101T92 220L152 522H202L142 220Q126 137 160 89T282 41Q371 41 430 90T509 238L566 522H616L512 0H463L493 151L506 138Q469 64 408 30T269 -4Z" />
<glyph unicode="v" horiz-adv-x="528" d="M187 0L55 522H106L229 28H205L524 522H577L238 0H187Z" />
<glyph unicode="w" horiz-adv-x="861" d="M162 0L58 522H104L200 28H179L460 522H503L603 28H581L859 522H908L613 0H565L466 474H482L210 0H162Z" />
<glyph unicode="x" horiz-adv-x="519" d="M-30 0L245 282L240 259L87 522H140L275 289L253 290L477 522H536L275 253L279 281L443 0H389L247 247L268 246L30 0H-30Z" />
<glyph unicode="y" horiz-adv-x="528" d="M10 -198Q-25 -198 -57 -186T-108 -152L-79 -115Q-62 -135 -39 -144T15 -154Q50 -154 79 -135T143 -64L198 19L206 28L525 522H577L187 -77Q157 -123 130 -149T74 -187T10 -198ZM191 -13L55 522H106L229 31L191 -13Z" />
<glyph unicode="z" horiz-adv-x="503" d="M-9 0L-2 34L443 496L458 479H93L101 522H505L498 488L52 26L36 43H415L406 0H-9Z" />
<glyph unicode="{" horiz-adv-x="320" d="M174 -194Q138 -194 113 -180T78 -138T76 -65L129 201Q134 228 126 240T95 253H60L69 296H104Q128 296 140 308T158 347L215 630Q227 686 261 714T361 742H393L384 699H356Q316 699 294 679T265 626L209 348Q204 322 196
306T174 282T139 270L140 277Q164 272 175 254T179 200L127 -61Q117 -109 134 -130T185 -151H215L206 -194H174Z" />
<glyph unicode="|" horiz-adv-x="291" d="M31 -194L218 742H265L78 -194H31Z" />
<glyph unicode="}" horiz-adv-x="320" d="M-68 -194L-59 -151H-30Q11 -151 32 -131T61 -78L117 200Q123 227 131 243T152 267T187 278L185 271Q161 276 150 294T146 348L199 609Q209 657 191 678T140 699H111L119 742H152Q188 742 213 728T248 686T249 613L196
347Q191 320 200 308T230 295H265L256 252H222Q198 252 185 240T167 201L110 -82Q99 -138 65 -166T-35 -194H-68Z" />
<glyph unicode="~" horiz-adv-x="569" d="M397 278Q359 278 335 293T293 330T256 367T208 383Q170 383 143 356T106 282H69Q79 328 98 359T146 406T208 423Q246 423 269 407T311 370T348 334T396 318Q434 318 461 345T499 418H535Q526 373 506 342T458 294T397 278Z" />
<glyph unicode="&#xa0;" horiz-adv-x="257" />
<glyph unicode="&#xa1;" horiz-adv-x="252" d="M14 -154L119 321H157L72 -154H14ZM170 444Q153 444 141 455T129 483Q129 495 135 504T150 520T172 526Q189 526 200 515T212 486Q212 469 200 457T170 444Z" />
<glyph unicode="&#xa2;" horiz-adv-x="555" d="M280 -4Q208 -4 155 22T74 98T45 213Q45 304 83 374T190 485T345 526Q415 526 465 502T543 428L502 403Q478 443 438 462T342 481Q270 481 215 447T127 352T95 216Q95 133 144 87T284 41Q336 41 381 60T457 117L492
89Q458 45 402 21T280 -4ZM212 -120L364 642H401L249 -120H212Z" />
<glyph unicode="&#xa3;" horiz-adv-x="629" d="M96 12L187 469Q203 550 245 602T349 679T489 705Q549 705 601 691T686 647L660 606Q628 634 584 646T486 658Q384 658 321 612T238 463L147 12H96ZM-22 0L-13 46H557L548 0H-22ZM43 332L51 368H504L497 332H43Z" />
<glyph unicode="&#xa4;" horiz-adv-x="700" d="M165 482L47 600L77 632L196 514L165 482ZM556 482L525 514L644 632L675 600L556 482ZM644 3L525 121L556 153L675 35L644 3ZM77 3L47 35L165 153L196 121L77 3ZM361 50Q304 50 254 70T166 128T106 213T84 317Q84
373 106 421T166 507T254 566T361 587Q419 587 469 566T557 508T617 422T639 317Q639 262 618 214T558 128T469 71T361 50ZM361 93Q426 93 479 123T565 204T597 317Q597 380 565 431T480 513T361 544Q297 544 244 513T159 431T127 317Q127 255 158 205T243 124T361
93Z" />
<glyph unicode="&#xa5;" horiz-adv-x="685" d="M264 0L325 304L332 273L92 700H146L365 308H339L712 700H768L359 269L377 304L316 0H264ZM64 141L71 175H579L572 141H64ZM92 279L99 313H607L600 279H92Z" />
<glyph unicode="&#xa6;" horiz-adv-x="291" d="M148 392L218 742H265L195 392H148ZM31 -194L101 156H148L78 -194H31Z" />
<glyph unicode="&#xa7;" horiz-adv-x="482" d="M309 148L271 175Q336 185 371 218T407 299Q407 335 386 355T333 386T264 406T195 430T142 470T121 540Q121 588 149 625T228 683T347 704Q381 704 414 698T477 681T525 652L501 615Q472 639 431 650T344 662Q261
662 214 627T167 543Q167 508 187 489T240 458T309 438T378 414T431 374T452 303Q452 245 413 204T309 148ZM155 -104Q97 -104 50 -86T-29 -37L-4 1Q27 -29 67 -45T161 -62Q242 -62 288 -28T334 58Q334 92 313 112T260 143T191 164T122 188T69 228T48 298Q48 352
86 393T188 451L225 425Q163 414 129 380T94 302Q94 267 114 248T167 216T236 195T305 170T359 130T380 61Q380 12 352 -25T274 -83T155 -104Z" />
<glyph unicode="&#xa8;" horiz-adv-x="600" d="M466 634Q452 634 442 643T432 667Q432 684 443 695T469 706Q483 706 493 697T504 673Q504 657 493 646T466 634ZM293 634Q279 634 269 643T259 667Q259 684 270 695T297 706Q311 706 321 697T331 673Q331 657 320
646T293 634Z" />
<glyph unicode="&#xa9;" horiz-adv-x="815" d="M424 -3Q349 -3 285 24T173 99T99 212T72 350Q72 424 99 488T174 600T286 676T426 703Q501 703 565 677T677 602T751 491T778 352Q778 277 751 213T676 100T563 24T424 -3ZM424 26Q493 26 551 51T654 121T723 224T748
352Q748 421 724 479T657 581T554 649T426 674Q357 674 298 649T195 580T127 477T102 350Q102 282 126 224T194 121T297 51T424 26ZM433 141Q374 141 327 167T253 241T226 350Q226 411 253 458T327 532T433 559Q482 559 522 540T589 486L557 461Q535 491 503 506T432
521Q385 521 348 500T290 440T268 350Q268 299 289 261T348 201T432 179Q470 179 502 194T557 239L589 215Q563 179 523 160T433 141Z" />
<glyph unicode="&#xaa;" horiz-adv-x="398" d="M319 432L333 501V512L356 625Q366 671 343 692T273 713Q242 713 210 704T154 675L140 703Q166 722 202 733T279 745Q343 745 375 714T395 622L357 432H319ZM204 429Q152 429 124 450T95 506Q95 538 112 560T159
593T231 605H360L356 579H230Q184 579 159 561T133 510Q133 458 212 458Q254 458 284 474T337 522L342 500Q323 468 289 449T204 429Z" />
<glyph unicode="&#xab;" horiz-adv-x="455" d="M161 74L53 261L236 449H287L90 245L92 282L209 74H161ZM328 74L220 261L403 449H454L257 245L259 282L376 74H328Z" />
<glyph unicode="&#xac;" horiz-adv-x="569" d="M519 371L475 149H430L466 329H85L94 371H519Z" />
<glyph unicode="&#xad;" horiz-adv-x="381" d="M59 246L68 291H325L316 246H59Z" />
<glyph unicode="&#xae;" horiz-adv-x="815" d="M424 -3Q349 -3 285 24T173 99T99 212T72 350Q72 424 99 488T174 600T286 676T426 703Q501 703 565 677T677 602T751 491T778 352Q778 277 751 213T676 100T563 24T424 -3ZM563 145L460 304H501L604 145H563ZM424
26Q493 26 551 51T654 121T723 224T748 352Q748 421 724 479T657 581T554 649T426 674Q357 674 298 649T195 580T127 477T102 350Q102 282 126 224T194 121T297 51T424 26ZM291 145V555H445Q518 555 560 519T602 421Q602 358 560 322T445 286H330V145H291ZM329
320H442Q500 320 532 346T564 421Q564 468 532 494T442 521H329V320Z" />
<glyph unicode="&#xaf;" horiz-adv-x="600" d="M230 648L237 684H531L524 648H230Z" />
<glyph unicode="&#xb0;" horiz-adv-x="419" d="M268 394Q225 394 189 415T133 471T112 549Q112 593 132 628T189 683T268 704Q311 704 346 684T402 628T423 549Q423 506 403 471T347 415T268 394ZM268 426Q302 426 329 443T373 487T390 549Q390 584 374 611T330
655T268 672Q233 672 206 656T162 612T146 549Q146 515 162 487T205 443T268 426Z" />
<glyph unicode="&#xb1;" horiz-adv-x="569" d="M20 0L28 43H453L444 0H20ZM242 164L324 574H369L287 164H242ZM89 347L97 390H523L514 347H89Z" />
<glyph unicode="&#xb2;" horiz-adv-x="430" d="M62 327L67 353L292 518Q331 546 351 567T379 605T387 640Q387 674 360 692T281 711Q238 711 204 699T143 663L119 687Q148 715 190 730T285 745Q352 745 389 718T426 643Q426 621 418 600T387 554T319 497L113 346L99
361H392L385 327H62Z" />
<glyph unicode="&#xb3;" horiz-adv-x="430" d="M222 324Q167 324 124 339T60 379L81 408Q102 387 139 373T225 358Q291 358 329 383T368 457Q368 493 342 512T262 532H219L224 559L400 723L407 708H132L139 742H446L441 716L264 552L248 563H269Q336 563 371 535T407
459Q407 417 384 387T320 340T222 324Z" />
<glyph unicode="&#xb4;" horiz-adv-x="600" d="M310 607L462 725H537L367 607H310Z" />
<glyph unicode="&#xb5;" horiz-adv-x="675" d="M15 -194L158 522H208L148 220Q131 137 166 89T287 41Q376 41 435 90T515 238L571 522H621L517 0H469L499 151L512 138Q488 89 452 58T373 11T283 -4Q215 -4 171 23T111 107L130 130L65 -194H15Z" />
<glyph unicode="&#xb6;" horiz-adv-x="619" d="M153 -100L254 405Q205 406 166 422T105 471T83 549Q83 614 114 657T201 721T328 742H593L425 -100H381L541 701H356L197 -100H153Z" />
<glyph unicode="&#xb7;" horiz-adv-x="240" d="M120 225Q103 225 91 237T79 266Q79 286 92 298T122 311Q140 311 151 300T163 270Q163 257 157 247T142 231T120 225Z" />
<glyph unicode="&#xb8;" horiz-adv-x="600" d="M193 -217Q169 -217 148 -211T111 -192L130 -164Q143 -174 159 -179T196 -185Q230 -185 249 -168T268 -125Q268 -104 253 -93T210 -81H191L232 6H265L238 -53Q271 -57 289 -75T308 -123Q308 -164 276 -190T193 -217Z" />
<glyph unicode="&#xb9;" horiz-adv-x="430" d="M227 337L305 726L319 709H183L189 742H348L267 337H227ZM99 327L105 360H385L378 327H99Z" />
<glyph unicode="&#xba;" horiz-adv-x="412" d="M249 429Q205 429 172 446T119 493T100 565Q100 616 125 657T193 721T293 745Q338 745 371 728T422 681T441 610Q441 559 417 518T349 453T249 429ZM253 463Q297 463 330 482T383 535T403 609Q403 656 372 684T290
712Q245 712 211 692T158 639T138 566Q138 519 170 491T253 463Z" />
<glyph unicode="&#xbb;" horiz-adv-x="455" d="M127 449L235 261L52 74H2L198 278L197 241L80 449H127ZM294 449L402 261L219 74H169L365 278L364 241L247 449H294Z" />
<glyph unicode="&#xbc;" horiz-adv-x="1025" d="M219 295L297 684L311 667H175L181 700H340L259 295H219ZM91 285L97 318H377L370 285H91ZM200 0L814 700H861L247 0H200ZM595 112L601 139L864 415H911L647 139L626 145H970L963 112H595ZM808 0L831 112L840 145L859
242H895L847 0H808Z" />
<glyph unicode="&#xbd;" horiz-adv-x="1025" d="M219 295L297 684L311 667H175L181 700H340L259 295H219ZM91 285L97 318H377L370 285H91ZM200 0L814 700H861L247 0H200ZM592 0L597 26L822 191Q861 219 881 240T909 278T917 313Q917 347 890 365T811 384Q768 384
734 372T673 336L649 360Q678 388 720 403T815 418Q882 418 919 391T956 316Q956 294 948 273T917 227T849 170L643 19L629 34H922L915 0H592Z" />
<glyph unicode="&#xbe;" horiz-adv-x="1025" d="M214 282Q159 282 116 297T52 337L73 366Q94 345 131 331T217 316Q283 316 321 341T360 415Q360 451 334 470T254 490H211L216 517L392 681L399 666H124L131 700H438L433 674L256 510L240 521H261Q328 521 363 493T399
417Q399 375 376 345T312 298T214 282ZM200 0L814 700H861L247 0H200ZM595 112L601 139L864 415H911L647 139L626 145H970L963 112H595ZM808 0L831 112L840 145L859 242H895L847 0H808Z" />
<glyph unicode="&#xbf;" horiz-adv-x="562" d="M229 -159Q167 -159 123 -141T55 -90T31 -9Q31 36 47 68T89 124T144 169T202 211T252 259T281 321H333Q325 280 304 251T255 198T196 156T140 114T98 64T82 -4Q82 -55 121 -84T235 -114Q306 -114 358 -93T450 -31L483
-63Q439 -109 376 -134T229 -159ZM339 444Q322 444 311 455T299 483Q299 495 304 505T319 520T341 526Q358 526 369 515T381 487Q381 469 369 457T339 444Z" />
<glyph unicode="&#xc0;" horiz-adv-x="705" d="M-47 0L415 700H466L648 0H596L426 669H447L10 0H-47ZM110 197L136 240H554L563 197H110ZM455 757L321 875H393L509 757H455Z" />
<glyph unicode="&#xc1;" horiz-adv-x="705" d="M-47 0L415 700H466L648 0H596L426 669H447L10 0H-47ZM110 197L136 240H554L563 197H110ZM393 757L545 875H620L450 757H393Z" />
<glyph unicode="&#xc2;" horiz-adv-x="705" d="M-47 0L415 700H466L648 0H596L426 669H447L10 0H-47ZM110 197L136 240H554L563 197H110ZM298 757L438 875H493L606 757H558L447 859H482L350 757H298Z" />
<glyph unicode="&#xc3;" horiz-adv-x="705" d="M-47 0L415 700H466L648 0H596L426 669H447L10 0H-47ZM110 197L136 240H554L563 197H110ZM528 765Q505 765 489 775T458 799T430 823T399 834Q376 834 361 816T341 769H308Q314 815 339 842T400 869Q423 869 439
859T469 835T497 811T528 800Q551 800 567 818T587 863H620Q613 819 589 792T528 765Z" />
<glyph unicode="&#xc4;" horiz-adv-x="705" d="M-47 0L415 700H466L648 0H596L426 669H447L10 0H-47ZM110 197L136 240H554L563 197H110ZM549 784Q535 784 525 793T515 817Q515 834 526 845T552 856Q566 856 576 847T587 823Q587 807 576 796T549 784ZM376 784Q362
784 352 793T342 817Q342 834 353 845T380 856Q394 856 404 847T414 823Q414 807 403 796T376 784Z" />
<glyph unicode="&#xc5;" horiz-adv-x="705" d="M-47 0L415 700H466L648 0H596L426 669H447L10 0H-47ZM110 197L136 240H554L563 197H110ZM475 774Q447 774 425 787T389 823T376 871Q376 898 389 920T424 957T475 971Q504 971 526 957T562 921T575 871Q575 845
562 823T527 788T475 774ZM475 802Q506 802 526 822T546 871Q546 900 526 921T475 942Q446 942 426 922T406 871Q406 842 425 822T475 802Z" />
<glyph unicode="&#xc6;" horiz-adv-x="1022" d="M-48 0L523 700H579L571 655H523L560 674L12 0H-48ZM150 197L167 240H487L479 197H150ZM423 0L563 700H1031L1021 654H605L483 46H915L905 0H423ZM534 333L543 378H922L913 333H534Z" />
<glyph unicode="&#xc7;" horiz-adv-x="716" d="M389 -5Q286 -5 214 31T105 132T67 283Q67 368 96 444T180 579T313 671T491 705Q573 705 636 680T734 609L698 576Q664 617 612 637T487 658Q402 658 334 629T218 548T144 429T118 285Q118 213 149 158T241 73T393
42Q465 42 523 63T624 126L655 91Q610 46 540 21T389 -5ZM309 -217Q285 -217 264 -211T227 -192L246 -164Q259 -174 275 -179T312 -185Q346 -185 365 -168T384 -125Q384 -104 369 -93T326 -81H307L348 6H381L354 -53Q387 -57 405 -75T424 -123Q424 -164 392 -190T309
-217Z" />
<glyph unicode="&#xc8;" horiz-adv-x="669" d="M190 378H569L560 333H181L190 378ZM130 46H562L552 0H70L210 700H678L668 654H252L130 46ZM458 757L324 875H396L512 757H458Z" />
<glyph unicode="&#xc9;" horiz-adv-x="669" d="M190 378H569L560 333H181L190 378ZM130 46H562L552 0H70L210 700H678L668 654H252L130 46ZM396 757L548 875H623L453 757H396Z" />
<glyph unicode="&#xca;" horiz-adv-x="669" d="M190 378H569L560 333H181L190 378ZM130 46H562L552 0H70L210 700H678L668 654H252L130 46ZM301 757L441 875H496L609 757H561L450 859H485L353 757H301Z" />
<glyph unicode="&#xcb;" horiz-adv-x="669" d="M190 378H569L560 333H181L190 378ZM130 46H562L552 0H70L210 700H678L668 654H252L130 46ZM552 784Q538 784 528 793T518 817Q518 834 529 845T555 856Q569 856 579 847T590 823Q590 807 579 796T552 784ZM379 784Q365
784 355 793T345 817Q345 834 356 845T383 856Q397 856 407 847T417 823Q417 807 406 796T379 784Z" />
<glyph unicode="&#xcc;" horiz-adv-x="295" d="M70 0L210 700H261L121 0H70ZM250 757L116 875H188L304 757H250Z" />
<glyph unicode="&#xcd;" horiz-adv-x="295" d="M70 0L210 700H261L121 0H70ZM188 757L340 875H415L245 757H188Z" />
<glyph unicode="&#xce;" horiz-adv-x="295" d="M70 0L210 700H261L121 0H70ZM93 757L233 875H288L401 757H353L242 859H277L145 757H93Z" />
<glyph unicode="&#xcf;" horiz-adv-x="295" d="M70 0L210 700H261L121 0H70ZM344 784Q330 784 320 793T310 817Q310 834 321 845T347 856Q361 856 371 847T382 823Q382 807 371 796T344 784ZM171 784Q157 784 147 793T137 817Q137 834 148 845T175 856Q189 856
199 847T209 823Q209 807 198 796T171 784Z" />
<glyph unicode="&#xd0;" horiz-adv-x="829" d="M73 0L213 700H473Q578 700 651 665T761 567T799 417Q799 326 769 249T681 117T543 31T363 0H73ZM133 46H366Q483 46 568 93T700 224T747 415Q747 487 716 541T623 624T467 654H255L133 46ZM286 590L295 633H671L662
590H286Z" />
<glyph unicode="&#xd1;" horiz-adv-x="814" d="M70 0L210 700H252L619 61L602 65L729 700H780L640 0H597L231 639L248 635L121 0H70ZM582 765Q559 765 543 775T512 799T484 823T453 834Q430 834 415 816T395 769H362Q368 815 393 842T454 869Q477 869 493 859T523
835T551 811T582 800Q605 800 621 818T641 863H674Q667 819 643 792T582 765Z" />
<glyph unicode="&#xd2;" horiz-adv-x="838" d="M387 -5Q284 -5 213 31T104 132T67 283Q67 368 96 444T179 579T311 671T486 705Q589 705 661 669T770 568T807 417Q807 332 778 256T694 121T562 29T387 -5ZM392 42Q475 42 542 71T656 152T729 271T755 415Q755 488
724 542T633 627T482 658Q399 658 332 629T218 548T144 429T118 285Q118 213 149 158T241 73T392 42ZM521 757L387 875H459L575 757H521Z" />
<glyph unicode="&#xd3;" horiz-adv-x="838" d="M387 -5Q284 -5 213 31T104 132T67 283Q67 368 96 444T179 579T311 671T486 705Q589 705 661 669T770 568T807 417Q807 332 778 256T694 121T562 29T387 -5ZM392 42Q475 42 542 71T656 152T729 271T755 415Q755 488
724 542T633 627T482 658Q399 658 332 629T218 548T144 429T118 285Q118 213 149 158T241 73T392 42ZM459 757L611 875H686L516 757H459Z" />
<glyph unicode="&#xd4;" horiz-adv-x="838" d="M387 -5Q284 -5 213 31T104 132T67 283Q67 368 96 444T179 579T311 671T486 705Q589 705 661 669T770 568T807 417Q807 332 778 256T694 121T562 29T387 -5ZM392 42Q475 42 542 71T656 152T729 271T755 415Q755 488
724 542T633 627T482 658Q399 658 332 629T218 548T144 429T118 285Q118 213 149 158T241 73T392 42ZM364 757L504 875H559L672 757H624L513 859H548L416 757H364Z" />
<glyph unicode="&#xd5;" horiz-adv-x="838" d="M387 -5Q284 -5 213 31T104 132T67 283Q67 368 96 444T179 579T311 671T486 705Q589 705 661 669T770 568T807 417Q807 332 778 256T694 121T562 29T387 -5ZM392 42Q475 42 542 71T656 152T729 271T755 415Q755 488
724 542T633 627T482 658Q399 658 332 629T218 548T144 429T118 285Q118 213 149 158T241 73T392 42ZM594 765Q571 765 555 775T524 799T496 823T465 834Q442 834 427 816T407 769H374Q380 815 405 842T466 869Q489 869 505 859T535 835T563 811T594 800Q617 800
633 818T653 863H686Q679 819 655 792T594 765Z" />
<glyph unicode="&#xd6;" horiz-adv-x="838" d="M387 -5Q284 -5 213 31T104 132T67 283Q67 368 96 444T179 579T311 671T486 705Q589 705 661 669T770 568T807 417Q807 332 778 256T694 121T562 29T387 -5ZM392 42Q475 42 542 71T656 152T729 271T755 415Q755 488
724 542T633 627T482 658Q399 658 332 629T218 548T144 429T118 285Q118 213 149 158T241 73T392 42ZM615 784Q601 784 591 793T581 817Q581 834 592 845T618 856Q632 856 642 847T653 823Q653 807 642 796T615 784ZM442 784Q428 784 418 793T408 817Q408 834 419
845T446 856Q460 856 470 847T480 823Q480 807 469 796T442 784Z" />
<glyph unicode="&#xd7;" horiz-adv-x="569" d="M124 216L453 516L480 484L151 184L124 216ZM156 487L187 516L448 213L417 184L156 487Z" />
<glyph unicode="&#xd8;" horiz-adv-x="838" d="M387 -5Q284 -5 213 31T104 132T67 283Q67 368 96 444T179 579T311 671T486 705Q589 705 661 669T770 568T807 417Q807 332 778 256T694 121T562 29T387 -5ZM392 42Q475 42 542 71T656 152T729 271T755 415Q755 488
724 542T633 627T482 658Q399 658 332 629T218 548T144 429T118 285Q118 213 149 158T241 73T392 42ZM24 -70L800 770H847L71 -70H24Z" />
<glyph unicode="&#xd9;" horiz-adv-x="793" d="M357 -5Q262 -5 204 35T126 143T123 295L204 700H255L174 295Q163 243 168 197T195 116T258 62T363 42Q441 42 494 70T581 154T630 285L713 700H764L681 282Q654 145 574 70T357 -5ZM498 757L364 875H436L552 757H498Z" />
<glyph unicode="&#xda;" horiz-adv-x="793" d="M357 -5Q262 -5 204 35T126 143T123 295L204 700H255L174 295Q163 243 168 197T195 116T258 62T363 42Q441 42 494 70T581 154T630 285L713 700H764L681 282Q654 145 574 70T357 -5ZM436 757L588 875H663L493 757H436Z" />
<glyph unicode="&#xdb;" horiz-adv-x="793" d="M357 -5Q262 -5 204 35T126 143T123 295L204 700H255L174 295Q163 243 168 197T195 116T258 62T363 42Q441 42 494 70T581 154T630 285L713 700H764L681 282Q654 145 574 70T357 -5ZM341 757L481 875H536L649 757H601L490
859H525L393 757H341Z" />
<glyph unicode="&#xdc;" horiz-adv-x="793" d="M357 -5Q262 -5 204 35T126 143T123 295L204 700H255L174 295Q163 243 168 197T195 116T258 62T363 42Q441 42 494 70T581 154T630 285L713 700H764L681 282Q654 145 574 70T357 -5ZM592 784Q578 784 568 793T558
817Q558 834 569 845T595 856Q609 856 619 847T630 823Q630 807 619 796T592 784ZM419 784Q405 784 395 793T385 817Q385 834 396 845T423 856Q437 856 447 847T457 823Q457 807 446 796T419 784Z" />
<glyph unicode="&#xdd;" horiz-adv-x="625" d="M234 0L285 255L291 220L92 700H145L324 265L298 264L651 700H708L318 218L336 255L285 0H234ZM352 757L504 875H579L409 757H352Z" />
<glyph unicode="&#xde;" horiz-adv-x="715" d="M134 134L142 179H358Q486 179 556 236T627 408Q627 481 577 520T433 559H219L227 605H437Q552 605 615 555T679 411Q679 322 640 260T529 166T357 134H134ZM70 0L210 700H261L121 0H70Z" />
<glyph unicode="&#xdf;" horiz-adv-x="661" d="M333 -4Q305 -4 273 1T221 14L236 57Q258 48 283 44T333 40Q398 40 447 63T524 129T551 231Q551 294 507 324T390 355H332L341 398Q407 399 457 421T536 486T565 585Q565 640 530 671T425 702Q342 702 284 657T203
505L102 0H52L153 503Q170 589 208 642T303 721T428 746Q486 746 527 727T591 673T614 589Q614 527 583 478T499 399T378 369L407 391Q465 391 508 373T576 320T601 232Q601 160 567 107T472 25T333 -4Z" />
<glyph unicode="&#xe0;" horiz-adv-x="675" d="M270 -4Q203 -4 152 22T73 97T45 213Q45 281 66 338T128 437T222 502T340 526Q409 526 457 502T530 431T556 318Q557 225 522 152T422 38T270 -4ZM280 41Q351 41 406 75T493 169T525 306Q525 390 477 435T340 481Q270
481 215 447T127 352T95 216Q95 133 143 87T280 41ZM470 0L502 163L531 254L538 350L572 522H622L518 0H470ZM396 607L262 725H334L450 607H396Z" />
<glyph unicode="&#xe1;" horiz-adv-x="675" d="M270 -4Q203 -4 152 22T73 97T45 213Q45 281 66 338T128 437T222 502T340 526Q409 526 457 502T530 431T556 318Q557 225 522 152T422 38T270 -4ZM280 41Q351 41 406 75T493 169T525 306Q525 390 477 435T340 481Q270
481 215 447T127 352T95 216Q95 133 143 87T280 41ZM470 0L502 163L531 254L538 350L572 522H622L518 0H470ZM334 607L486 725H561L391 607H334Z" />
<glyph unicode="&#xe2;" horiz-adv-x="675" d="M270 -4Q203 -4 152 22T73 97T45 213Q45 281 66 338T128 437T222 502T340 526Q409 526 457 502T530 431T556 318Q557 225 522 152T422 38T270 -4ZM280 41Q351 41 406 75T493 169T525 306Q525 390 477 435T340 481Q270
481 215 447T127 352T95 216Q95 133 143 87T280 41ZM470 0L502 163L531 254L538 350L572 522H622L518 0H470ZM239 607L379 725H434L547 607H499L388 709H423L291 607H239Z" />
<glyph unicode="&#xe3;" horiz-adv-x="675" d="M270 -4Q203 -4 152 22T73 97T45 213Q45 281 66 338T128 437T222 502T340 526Q409 526 457 502T530 431T556 318Q557 225 522 152T422 38T270 -4ZM280 41Q351 41 406 75T493 169T525 306Q525 390 477 435T340 481Q270
481 215 447T127 352T95 216Q95 133 143 87T280 41ZM470 0L502 163L531 254L538 350L572 522H622L518 0H470ZM469 615Q446 615 430 625T399 649T371 673T340 684Q317 684 302 666T282 619H249Q255 665 280 692T341 719Q364 719 380 709T410 685T438 661T469 650Q492
650 508 668T528 713H561Q554 669 530 642T469 615Z" />
<glyph unicode="&#xe4;" horiz-adv-x="675" d="M270 -4Q203 -4 152 22T73 97T45 213Q45 281 66 338T128 437T222 502T340 526Q409 526 457 502T530 431T556 318Q557 225 522 152T422 38T270 -4ZM280 41Q351 41 406 75T493 169T525 306Q525 390 477 435T340 481Q270
481 215 447T127 352T95 216Q95 133 143 87T280 41ZM470 0L502 163L531 254L538 350L572 522H622L518 0H470ZM490 634Q476 634 466 643T456 667Q456 684 467 695T493 706Q507 706 517 697T528 673Q528 657 517 646T490 634ZM317 634Q303 634 293 643T283 667Q283
684 294 695T321 706Q335 706 345 697T355 673Q355 657 344 646T317 634Z" />
<glyph unicode="&#xe5;" horiz-adv-x="675" d="M270 -4Q203 -4 152 22T73 97T45 213Q45 281 66 338T128 437T222 502T340 526Q409 526 457 502T530 431T556 318Q557 225 522 152T422 38T270 -4ZM280 41Q351 41 406 75T493 169T525 306Q525 390 477 435T340 481Q270
481 215 447T127 352T95 216Q95 133 143 87T280 41ZM470 0L502 163L531 254L538 350L572 522H622L518 0H470ZM410 596Q382 596 360 609T324 645T311 693Q311 720 324 742T359 779T410 793Q439 793 461 779T497 743T510 693Q510 667 497 645T462 610T410 596ZM410
624Q441 624 461 644T481 693Q481 722 461 743T410 764Q381 764 361 744T341 693Q341 664 360 644T410 624Z" />
<glyph unicode="&#xe6;" horiz-adv-x="985" d="M214 -4Q157 -4 118 12T57 58T35 129Q35 203 92 246T254 290H445L439 251H251Q172 251 129 220T85 132Q85 86 118 62T218 37Q267 37 308 55T379 110T420 202L446 327Q461 403 429 442T315 481Q263 481 214 464T129
417L110 455Q138 478 173 494T246 518T322 526Q414 526 457 484T495 366L472 374Q497 422 535 456T619 508T717 526Q785 526 835 500T912 426T940 308Q940 293 938 278T933 251H470L477 290H911L889 272Q899 341 880 387T817 458T715 483Q648 483 595 449T511 355T480
217Q480 130 529 86T674 41Q730 41 775 59T851 111L876 76Q840 39 786 18T669 -4Q605 -4 555 16T474 79T436 184L461 182Q443 115 405 74T317 15T214 -4Z" />
<glyph unicode="&#xe7;" horiz-adv-x="555" d="M280 -4Q208 -4 155 22T74 98T45 213Q45 304 83 374T190 485T345 526Q415 526 465 502T543 428L502 403Q478 443 438 462T342 481Q270 481 215 447T127 352T95 216Q95 133 144 87T284 41Q336 41 381 60T457 117L492
89Q458 45 402 21T280 -4ZM227 37Q203 37 182 43T145 62L164 90Q177 80 193 75T230 69Q264 69 283 86T302 129Q302 150 287 161T244 173H225L266 260H299L272 201Q305 197 323 179T342 131Q342 90 310 64T227 37Z" />
<glyph unicode="&#xe8;" horiz-adv-x="598" d="M283 -4Q210 -4 156 22T74 98T45 215Q45 304 82 374T184 485T330 526Q399 526 448 500T524 426T552 308Q552 293 550 278T546 250H83L90 289H522L502 272Q513 341 493 387T431 458T329 483Q261 483 208 449T124 355T94
217Q94 132 143 87T287 41Q343 41 389 59T466 111L489 76Q455 39 401 18T283 -4ZM621 607L487 725H559L675 607H621Z" />
<glyph unicode="&#xe9;" horiz-adv-x="598" d="M283 -4Q210 -4 156 22T74 98T45 215Q45 304 82 374T184 485T330 526Q399 526 448 500T524 426T552 308Q552 293 550 278T546 250H83L90 289H522L502 272Q513 341 493 387T431 458T329 483Q261 483 208 449T124 355T94
217Q94 132 143 87T287 41Q343 41 389 59T466 111L489 76Q455 39 401 18T283 -4ZM559 607L711 725H786L616 607H559Z" />
<glyph unicode="&#xea;" horiz-adv-x="598" d="M283 -4Q210 -4 156 22T74 98T45 215Q45 304 82 374T184 485T330 526Q399 526 448 500T524 426T552 308Q552 293 550 278T546 250H83L90 289H522L502 272Q513 341 493 387T431 458T329 483Q261 483 208 449T124 355T94
217Q94 132 143 87T287 41Q343 41 389 59T466 111L489 76Q455 39 401 18T283 -4ZM464 607L604 725H659L772 607H724L613 709H648L516 607H464Z" />
<glyph unicode="&#xeb;" horiz-adv-x="598" d="M283 -4Q210 -4 156 22T74 98T45 215Q45 304 82 374T184 485T330 526Q399 526 448 500T524 426T552 308Q552 293 550 278T546 250H83L90 289H522L502 272Q513 341 493 387T431 458T329 483Q261 483 208 449T124 355T94
217Q94 132 143 87T287 41Q343 41 389 59T466 111L489 76Q455 39 401 18T283 -4ZM715 634Q701 634 691 643T681 667Q681 684 692 695T718 706Q732 706 742 697T753 673Q753 657 742 646T715 634ZM542 634Q528 634 518 643T508 667Q508 684 519 695T546 706Q560
706 570 697T580 673Q580 657 569 646T542 634Z" />
<glyph unicode="&#xec;" horiz-adv-x="261" d="M53 0L157 522H207L103 0H53ZM203 607L69 725H141L257 607H203Z" />
<glyph unicode="&#xed;" horiz-adv-x="261" d="M53 0L157 522H207L103 0H53ZM141 607L293 725H368L198 607H141Z" />
<glyph unicode="&#xee;" horiz-adv-x="261" d="M53 0L157 522H207L103 0H53ZM71 607L187 725H240L329 607H282L198 709H227L121 607H71Z" />
<glyph unicode="&#xef;" horiz-adv-x="261" d="M53 0L157 522H207L103 0H53ZM272 634Q258 634 249 643T240 667Q240 683 250 694T277 706Q291 706 300 697T309 673Q309 657 298 646T272 634ZM148 634Q134 634 125 643T115 667Q115 683 126 694T153 706Q167 706
176 697T185 673Q185 657 174 646T148 634Z" />
<glyph unicode="&#xf0;" horiz-adv-x="627" d="M255 -5Q190 -5 141 18T65 85T38 184Q38 260 74 315T174 402T317 434Q383 434 431 409T504 337T522 228L502 222Q530 271 541 332T553 447Q553 558 494 613T326 668Q290 668 252 663T186 646L183 689Q212 700 251
706T329 712Q413 712 474 682T570 594T604 448Q604 384 590 320T547 197T477 93T380 21T255 -5ZM260 39Q303 39 344 54T418 97T470 161T490 241Q490 311 444 350T319 390Q251 390 199 365T117 294T88 188Q88 118 133 79T260 39ZM205 505L191 541L604 707L618 670L205
505Z" />
<glyph unicode="&#xf1;" horiz-adv-x="673" d="M402 526Q473 526 517 499T578 421T581 302L521 0H471L531 302Q548 385 513 433T389 481Q300 481 240 432T160 284L103 0H53L157 522H206L176 371L163 384Q200 458 262 492T402 526ZM483 615Q460 615 444 625T413
649T385 673T354 684Q331 684 316 666T296 619H263Q269 665 294 692T355 719Q378 719 394 709T424 685T452 661T483 650Q506 650 522 668T542 713H575Q568 669 544 642T483 615Z" />
<glyph unicode="&#xf2;" horiz-adv-x="620" d="M276 -4Q206 -4 154 22T74 98T45 213Q45 303 83 373T189 485T344 526Q415 526 466 500T546 425T575 309Q575 219 537 149T431 37T276 -4ZM280 41Q351 41 406 75T493 169T525 306Q525 390 477 435T340 481Q270 481
215 447T127 352T95 216Q95 133 143 87T280 41ZM381 607L247 725H319L435 607H381Z" />
<glyph unicode="&#xf3;" horiz-adv-x="620" d="M276 -4Q206 -4 154 22T74 98T45 213Q45 303 83 373T189 485T344 526Q415 526 466 500T546 425T575 309Q575 219 537 149T431 37T276 -4ZM280 41Q351 41 406 75T493 169T525 306Q525 390 477 435T340 481Q270 481
215 447T127 352T95 216Q95 133 143 87T280 41ZM319 607L471 725H546L376 607H319Z" />
<glyph unicode="&#xf4;" horiz-adv-x="620" d="M276 -4Q206 -4 154 22T74 98T45 213Q45 303 83 373T189 485T344 526Q415 526 466 500T546 425T575 309Q575 219 537 149T431 37T276 -4ZM280 41Q351 41 406 75T493 169T525 306Q525 390 477 435T340 481Q270 481
215 447T127 352T95 216Q95 133 143 87T280 41ZM224 607L364 725H419L532 607H484L373 709H408L276 607H224Z" />
<glyph unicode="&#xf5;" horiz-adv-x="620" d="M276 -4Q206 -4 154 22T74 98T45 213Q45 303 83 373T189 485T344 526Q415 526 466 500T546 425T575 309Q575 219 537 149T431 37T276 -4ZM280 41Q351 41 406 75T493 169T525 306Q525 390 477 435T340 481Q270 481
215 447T127 352T95 216Q95 133 143 87T280 41ZM454 615Q431 615 415 625T384 649T356 673T325 684Q302 684 287 666T267 619H234Q240 665 265 692T326 719Q349 719 365 709T395 685T423 661T454 650Q477 650 493 668T513 713H546Q539 669 515 642T454 615Z" />
<glyph unicode="&#xf6;" horiz-adv-x="620" d="M276 -4Q206 -4 154 22T74 98T45 213Q45 303 83 373T189 485T344 526Q415 526 466 500T546 425T575 309Q575 219 537 149T431 37T276 -4ZM280 41Q351 41 406 75T493 169T525 306Q525 390 477 435T340 481Q270 481
215 447T127 352T95 216Q95 133 143 87T280 41ZM475 634Q461 634 451 643T441 667Q441 684 452 695T478 706Q492 706 502 697T513 673Q513 657 502 646T475 634ZM302 634Q288 634 278 643T268 667Q268 684 279 695T306 706Q320 706 330 697T340 673Q340 657 329
646T302 634Z" />
<glyph unicode="&#xf7;" horiz-adv-x="569" d="M85 328L94 371H519L511 328H85ZM263 124Q248 124 237 135T226 162Q226 180 238 191T266 203Q282 203 292 193T303 165Q303 148 292 136T263 124ZM338 497Q323 497 312 508T300 535Q300 553 312 564T340 576Q356
576 367 566T378 539Q378 522 367 510T338 497Z" />
<glyph unicode="&#xf8;" horiz-adv-x="620" d="M276 -4Q206 -4 154 22T74 98T45 213Q45 303 83 373T189 485T344 526Q415 526 466 500T546 425T575 309Q575 219 537 149T431 37T276 -4ZM280 41Q351 41 406 75T493 169T525 306Q525 390 477 435T340 481Q270 481
215 447T127 352T95 216Q95 133 143 87T280 41ZM2 -69L575 593H615L42 -69H2Z" />
<glyph unicode="&#xf9;" horiz-adv-x="669" d="M269 -4Q200 -4 156 23T95 101T92 220L152 522H202L142 220Q126 137 160 89T282 41Q371 41 430 90T509 238L566 522H616L512 0H463L493 151L506 138Q469 64 408 30T269 -4ZM404 607L270 725H342L458 607H404Z" />
<glyph unicode="&#xfa;" horiz-adv-x="669" d="M269 -4Q200 -4 156 23T95 101T92 220L152 522H202L142 220Q126 137 160 89T282 41Q371 41 430 90T509 238L566 522H616L512 0H463L493 151L506 138Q469 64 408 30T269 -4ZM342 607L494 725H569L399 607H342Z" />
<glyph unicode="&#xfb;" horiz-adv-x="669" d="M269 -4Q200 -4 156 23T95 101T92 220L152 522H202L142 220Q126 137 160 89T282 41Q371 41 430 90T509 238L566 522H616L512 0H463L493 151L506 138Q469 64 408 30T269 -4ZM247 607L387 725H442L555 607H507L396
709H431L299 607H247Z" />
<glyph unicode="&#xfc;" horiz-adv-x="669" d="M269 -4Q200 -4 156 23T95 101T92 220L152 522H202L142 220Q126 137 160 89T282 41Q371 41 430 90T509 238L566 522H616L512 0H463L493 151L506 138Q469 64 408 30T269 -4ZM498 634Q484 634 474 643T464 667Q464
684 475 695T501 706Q515 706 525 697T536 673Q536 657 525 646T498 634ZM325 634Q311 634 301 643T291 667Q291 684 302 695T329 706Q343 706 353 697T363 673Q363 657 352 646T325 634Z" />
<glyph unicode="&#xfd;" horiz-adv-x="528" d="M10 -198Q-25 -198 -57 -186T-108 -152L-79 -115Q-62 -135 -39 -144T15 -154Q50 -154 79 -135T143 -64L198 19L206 28L525 522H577L187 -77Q157 -123 130 -149T74 -187T10 -198ZM191 -13L55 522H106L229 31L191 -13ZM516
607L668 725H743L573 607H516Z" />
<glyph unicode="&#xfe;" horiz-adv-x="675" d="M14 -194L201 742H251L175 359L145 268L138 172L64 -194H14ZM335 -4Q267 -4 219 20T145 91T119 204Q119 298 154 370T254 484T405 526Q473 526 523 500T602 425T631 309Q631 241 609 184T548 85T454 20T335 -4ZM336
41Q407 41 462 75T548 169T580 306Q580 390 532 435T395 481Q325 481 270 447T182 353T150 216Q150 133 199 87T336 41Z" />
<glyph unicode="&#xff;" horiz-adv-x="528" d="M10 -198Q-25 -198 -57 -186T-108 -152L-79 -115Q-62 -135 -39 -144T15 -154Q50 -154 79 -135T143 -64L198 19L206 28L525 522H577L187 -77Q157 -123 130 -149T74 -187T10 -198ZM191 -13L55 522H106L229 31L191 -13ZM672
634Q658 634 648 643T638 667Q638 684 649 695T675 706Q689 706 699 697T710 673Q710 657 699 646T672 634ZM499 634Q485 634 475 643T465 667Q465 684 476 695T503 706Q517 706 527 697T537 673Q537 657 526 646T499 634Z" />
<glyph unicode="&#x2013;" horiz-adv-x="500" d="M-2 250L5 287H505L498 250H-2Z" />
<glyph unicode="&#x2014;" horiz-adv-x="1000" d="M-2 250L5 287H1005L998 250H-2Z" />
<glyph unicode="&#x2018;" horiz-adv-x="200" d="M237 742L165 572L161 603Q178 603 190 591T202 562Q202 543 189 531T158 518Q141 518 129 530T117 559Q117 570 121 579T132 602L202 742H237Z" />
<glyph unicode="&#x2019;" horiz-adv-x="200" d="M110 522L183 691L187 661Q170 661 158 673T146 702Q146 721 159 733T190 746Q207 746 218 735T230 705Q230 694 227 685T216 662L146 522H110Z" />
<glyph unicode="&#x201a;" horiz-adv-x="200" d="M-23 -143L50 26L54 -4Q38 -4 26 8T13 37Q13 56 26 68T57 81Q74 81 86 70T98 40Q98 29 94 20T83 -3L13 -143H-23Z" />
<glyph unicode="&#x201c;" horiz-adv-x="353" d="M237 742L165 572L161 603Q178 603 190 591T202 562Q202 543 189 531T158 518Q141 518 129 530T117 559Q117 570 121 579T132 602L202 742H237ZM390 742L318 572L314 603Q331 603 343 591T355 562Q355 543 342
531T311 518Q294 518 282 530T270 559Q270 570 274 579T285 602L355 742H390Z" />
<glyph unicode="&#x201d;" horiz-adv-x="353" d="M110 522L183 691L187 661Q170 661 158 673T146 702Q146 721 159 733T190 746Q207 746 218 735T230 705Q230 694 227 685T216 662L146 522H110ZM263 522L336 691L340 661Q323 661 311 673T299 702Q299 721 312
733T343 746Q360 746 371 735T383 705Q383 694 380 685T369 662L299 522H263Z" />
<glyph unicode="&#x201e;" horiz-adv-x="353" d="M-23 -143L50 26L54 -4Q38 -4 26 8T13 37Q13 56 26 68T57 81Q74 81 86 70T98 40Q98 29 94 20T83 -3L13 -143H-23ZM130 -143L203 26L207 -4Q191 -4 179 8T166 37Q166 56 179 68T210 81Q227 81 239 70T251 40Q251
29 247 20T236 -3L166 -143H130Z" />
<glyph unicode="&#x2022;" horiz-adv-x="280" d="M139 208Q123 208 109 216T88 237T80 267Q80 287 89 301T113 325T145 334Q162 334 175 327T196 306T204 275Q204 257 195 242T172 217T139 208Z" />
<glyph unicode="&#x2039;" horiz-adv-x="288" d="M161 74L53 261L236 449H287L90 245L92 282L209 74H161Z" />
<glyph unicode="&#x203a;" horiz-adv-x="289" d="M127 449L235 261L52 74H2L198 278L197 241L80 449H127Z" />
</font>
</defs>
</svg>
