<?xml version="1.0" standalone="no"?>
<!DOCTYPE svg PUBLIC "-//W3C//DTD SVG 1.1//EN" "http://www.w3.org/Graphics/SVG/1.1/DTD/svg11.dtd">
<svg xmlns="http://www.w3.org/2000/svg">
<defs >
<font id="Montserrat" horiz-adv-x="626" ><font-face
    font-family="Montserrat Thin"
    units-per-em="1000"
    panose-1="0 0 0 0 0 0 0 0 0 0"
    ascent="968"
    descent="-251"
    alphabetic="0" />
<glyph unicode=" " horiz-adv-x="262" />
<glyph unicode="!" horiz-adv-x="260" d="M102 210L88 700H172L157 210H102ZM130 -5Q108 -5 93 10T77 47Q77 69 92 83T130 98Q153 98 167 84T182 47Q182 26 168 11T130 -5Z" />
<glyph unicode="&quot;" horiz-adv-x="373" d="M74 436L69 700H132L127 436H74ZM245 436L240 700H303L298 436H245Z" />
<glyph unicode="#" horiz-adv-x="696" d="M408 0L494 700H548L462 0H408ZM29 190V245H634V190H29ZM148 0L234 700H289L202 0H148ZM61 455V510H666V455H61Z" />
<glyph unicode="$" horiz-adv-x="615" d="M286 -120V820H336V-120H286ZM307 -6Q229 -6 158 19T47 85L76 142Q113 106 175 82T307 57Q373 57 414 73T475 118T495 180Q495 221 472 246T410 285T326 311T234 334T150 368T88 423T64 514Q64 566 91 609T176 679T322
706Q381 706 439 690T539 644L514 585Q469 615 419 629T321 643Q258 643 217 626T157 581T137 516Q137 475 160 450T222 411T307 386T398 362T482 329T544 274T568 185Q568 134 540 91T455 21T307 -6Z" />
<glyph unicode="%" horiz-adv-x="829" d="M146 0L624 700H683L205 0H146ZM200 325Q153 325 117 348T62 415T42 515Q42 572 61 615T117 681T200 705Q247 705 282 682T338 615T358 515Q358 458 338 415T283 349T200 325ZM200 370Q249 370 278 408T308 515Q308 583
279 621T200 660Q150 660 121 622T92 515Q92 447 121 409T200 370ZM629 -5Q583 -5 547 18T491 85T471 185Q471 242 491 285T547 351T629 375Q677 375 712 352T767 285T787 185Q787 128 768 85T713 19T629 -5ZM629 40Q678 40 707 78T737 185Q737 253 708 291T629
330Q580 330 551 292T521 185Q521 117 550 79T629 40Z" />
<glyph unicode="&amp;" horiz-adv-x="669" d="M284 -6Q216 -6 163 16T80 79T49 172Q49 217 69 254T133 328T252 405Q315 440 350 465T401 514T416 565Q416 604 390 628T314 652Q261 652 232 626T203 557Q203 536 209 517T234 475T286 417L656 36L615 -11L229 386Q194
423 174 450T145 503T137 556Q137 601 158 634T220 686T314 705Q363 705 399 689T456 641T477 566Q477 528 459 495T398 431T284 360Q221 325 185 296T133 240T118 179Q118 141 139 113T199 69T288 53Q358 53 413 82T505 170T560 318L617 300Q598 200 552 132T438
29T284 -6Z" />
<glyph unicode="&apos;" horiz-adv-x="202" d="M74 436L69 700H132L127 436H74Z" />
<glyph unicode="(" horiz-adv-x="329" d="M220 -194Q165 -103 135 16T104 274Q104 412 134 532T220 742H288Q229 639 202 524T174 274Q174 140 201 25T288 -194H220Z" />
<glyph unicode=")" horiz-adv-x="329" d="M108 -194H40Q100 -91 127 24T155 274Q155 408 128 523T40 742H108Q165 653 195 533T225 274Q225 136 195 17T108 -194Z" />
<glyph unicode="*" horiz-adv-x="386" d="M364 631L226 553V569L364 491L341 449L205 528L216 533V380H170L171 533L181 528L46 449L22 491L161 569V553L22 631L46 673L181 594L171 589L170 742H216V589L205 594L341 673L364 631Z" />
<glyph unicode="+" horiz-adv-x="575" d="M256 138V562H319V138H256ZM70 320V379H505V320H70Z" />
<glyph unicode="," horiz-adv-x="212" d="M56 -146L100 39L108 -4Q85 -4 70 11T54 50Q54 74 69 89T107 104Q130 104 144 88T159 50Q159 42 158 34T154 16T146 -8L104 -146H56Z" />
<glyph unicode="-" horiz-adv-x="382" d="M60 240V302H322V240H60Z" />
<glyph unicode="." horiz-adv-x="212" d="M106 -5Q84 -5 69 11T53 50Q53 74 68 89T106 104Q128 104 143 89T159 50Q159 27 144 11T106 -5Z" />
<glyph unicode="/" horiz-adv-x="335" d="M-25 -100L305 842H370L40 -100H-25Z" />
<glyph unicode="0" horiz-adv-x="662" d="M331 -6Q250 -6 187 36T88 158T52 350Q52 462 88 541T187 663T331 706Q412 706 475 664T574 542T611 350Q611 238 575 159T475 37T331 -6ZM331 60Q393 60 439 93T511 191T537 350Q537 444 511 508T439 606T331 640Q271
640 224 607T151 509T125 350Q125 256 151 192T224 94T331 60Z" />
<glyph unicode="1" horiz-adv-x="361" d="M174 0V670L206 636H9V700H246V0H174Z" />
<glyph unicode="2" horiz-adv-x="568" d="M39 0V51L330 336Q370 375 390 404T417 460T424 509Q424 570 383 605T260 640Q198 640 151 621T69 562L18 606Q59 654 123 680T266 706Q337 706 389 684T469 618T498 517Q498 483 489 450T455 381T383 298L116 36L96 64H530V0H39Z"
/>
<glyph unicode="3" horiz-adv-x="564" d="M261 -6Q185 -6 118 18T9 84L44 141Q78 106 135 83T261 60Q348 60 394 98T441 200Q441 264 396 302T252 340H202V393L418 664L428 636H38V700H488V649L272 378L237 401H264Q390 401 452 345T515 201Q515 142 487 95T403
21T261 -6Z" />
<glyph unicode="4" horiz-adv-x="661" d="M40 184V236L411 700H491L123 236L84 248H647V184H40ZM435 0V184L437 248V410H507V0H435Z" />
<glyph unicode="5" horiz-adv-x="566" d="M273 -6Q198 -6 130 18T22 84L57 141Q90 106 147 83T272 60Q361 60 407 99T454 203Q454 248 433 280T360 331T220 349H71L107 700H490V636H136L173 671L142 377L105 413H236Q342 413 406 387T498 315T527 206Q527 147
499 99T415 22T273 -6Z" />
<glyph unicode="6" horiz-adv-x="609" d="M339 -6Q246 -6 182 35T85 155T52 344Q52 463 92 543T205 665T372 706Q419 706 462 697T538 668L509 610Q482 628 447 635T373 643Q260 643 193 571T125 356Q125 334 127 302T139 237L114 256Q125 308 157 344T237 400T342
419Q412 419 465 393T548 320T578 209Q578 144 547 96T462 21T339 -6ZM336 55Q386 55 424 73T485 126T507 207Q507 276 460 317T331 358Q277 358 237 338T174 284T151 205Q151 167 172 133T234 77T336 55Z" />
<glyph unicode="7" horiz-adv-x="589" d="M175 0L477 668L499 636H66L103 671V505H32V700H546V649L253 0H175Z" />
<glyph unicode="8" horiz-adv-x="638" d="M318 -6Q234 -6 174 18T81 87T48 195Q48 255 79 297T171 363T318 386Q403 386 464 363T557 298T590 195Q590 133 557 88T463 18T318 -6ZM318 55Q411 55 463 93T516 196Q516 261 464 298T318 336Q225 336 173 299T121 196Q121
131 173 93T318 55ZM318 345Q240 345 186 366T102 426T73 521Q73 579 103 620T189 684T318 706Q392 706 447 684T534 621T565 521Q565 466 536 427T452 366T318 345ZM318 393Q400 393 446 427T492 518Q492 578 445 611T318 645Q239 645 192 612T145 519Q145 461
190 427T318 393Z" />
<glyph unicode="9" horiz-adv-x="609" d="M270 706Q363 706 427 665T524 545T557 356Q557 238 517 157T404 35T237 -6Q190 -6 148 3T71 32L100 90Q127 72 162 65T236 57Q349 57 416 129T484 344Q484 367 482 399T470 463L495 444Q485 392 453 356T373 300T267
281Q198 281 145 307T61 380T31 491Q31 557 62 605T147 679T270 706ZM273 645Q223 645 185 627T124 574T102 493Q102 424 149 383T278 342Q332 342 372 362T435 417T458 495Q458 534 437 568T375 623T273 645Z" />
<glyph unicode=":" horiz-adv-x="212" d="M106 421Q84 421 69 437T53 476Q53 500 68 515T106 530Q128 530 143 515T159 476Q159 453 144 437T106 421ZM106 -5Q84 -5 69 11T53 50Q53 74 68 89T106 104Q128 104 143 89T159 50Q159 27 144 11T106 -5Z" />
<glyph unicode=";" horiz-adv-x="212" d="M106 421Q84 421 69 437T53 476Q53 500 68 515T106 530Q128 530 143 515T159 476Q159 453 144 437T106 421ZM56 -146L100 39L108 -4Q85 -4 70 11T54 50Q54 74 69 89T107 104Q130 104 144 88T159 50Q159 42 158 34T154
16T146 -8L104 -146H56Z" />
<glyph unicode="&lt;" horiz-adv-x="575" d="M505 143L70 317V383L505 557V495L96 334V366L505 205V143Z" />
<glyph unicode="=" horiz-adv-x="575" d="M70 436V495H505V436H70ZM70 205V264H505V205H70Z" />
<glyph unicode="&gt;" horiz-adv-x="575" d="M70 143V205L479 366V334L70 495V557L505 383V317L70 143Z" />
<glyph unicode="?" horiz-adv-x="567" d="M235 210Q235 252 248 282T282 335T326 378T371 418T405 463T418 521Q418 575 376 609T257 643Q193 643 146 623T66 562L13 602Q53 652 116 679T262 706Q332 706 383 685T463 625T492 532Q492 489 479 459T445 405T401
361T356 319T322 272T309 210H235ZM272 -5Q251 -5 236 10T220 47Q220 69 235 83T272 98Q295 98 310 84T325 47Q325 26 310 11T272 -5Z" />
<glyph unicode="@" horiz-adv-x="1033" d="M515 -200Q412 -200 327 -167T181 -73T86 71T52 254Q52 354 85 436T181 579T330 673T519 706Q621 706 705 674T852 584T947 444T981 265Q981 181 962 121T905 28T816 -5Q765 -5 734 26T703 113V192L711 256L701 356V507H766V128Q766
86 784 69T828 52Q859 52 882 77T917 149T930 264Q930 352 900 424T815 548T685 627T519 655Q428 655 352 626T222 544T137 417T107 254Q107 165 136 91T220 -36T349 -119T515 -149Q560 -149 611 -138T707 -105L724 -154Q679 -177 622 -188T515 -200ZM503 -5Q432
-5 376 28T288 120T255 254Q255 329 287 387T376 478T503 511Q572 511 625 480T709 392T740 254Q740 174 710 116T626 27T503 -5ZM512 53Q566 53 609 78T677 148T702 254Q702 315 678 359T610 428T512 453Q456 453 413 429T346 359T321 254Q321 194 345 149T413
79T512 53Z" />
<glyph unicode="A" horiz-adv-x="717" d="M2 0L322 700H395L715 0H637L343 657H373L79 0H2ZM128 187L150 247H557L579 187H128Z" />
<glyph unicode="B" horiz-adv-x="754" d="M114 0V700H416Q533 700 597 653T662 520Q662 463 636 424T564 365T464 345L481 369Q548 369 596 349T672 288T699 187Q699 98 634 49T436 0H114ZM188 61H435Q527 61 576 92T625 193Q625 261 576 292T435 324H180V385H411Q495
385 541 417T588 512Q588 576 542 607T411 639H188V61Z" />
<glyph unicode="C" horiz-adv-x="719" d="M418 -6Q339 -6 272 20T156 95T80 208T52 350Q52 427 79 492T156 605T273 679T419 706Q495 706 562 681T675 604L628 557Q585 601 533 620T421 640Q358 640 304 619T210 558T148 466T125 350Q125 287 147 235T210 143T304
82T421 60Q481 60 533 80T628 144L675 97Q629 46 562 20T418 -6Z" />
<glyph unicode="D" horiz-adv-x="826" d="M114 0V700H399Q511 700 595 656T727 532T774 350Q774 247 727 168T596 45T399 0H114ZM188 64H395Q488 64 556 100T663 201T701 350Q701 435 663 499T557 599T395 636H188V64Z" />
<glyph unicode="E" horiz-adv-x="669" d="M180 387H550V324H180V387ZM188 64H609V0H114V700H594V636H188V64Z" />
<glyph unicode="F" horiz-adv-x="633" d="M180 361H550V297H180V361ZM188 0H114V700H594V636H188V0Z" />
<glyph unicode="G" horiz-adv-x="773" d="M421 -6Q341 -6 274 20T157 95T80 208T52 350Q52 427 79 492T157 605T274 679T422 706Q502 706 568 681T682 605L636 558Q592 602 539 621T425 640Q360 640 306 619T211 558T148 466T125 350Q125 288 147 235T210 143T305
82T424 60Q484 60 537 78T636 139L678 83Q628 39 561 17T421 -6ZM607 92V350H678V83L607 92Z" />
<glyph unicode="H" horiz-adv-x="813" d="M626 700H699V0H626V700ZM188 0H114V700H188V0ZM633 323H180V388H633V323Z" />
<glyph unicode="I" horiz-adv-x="302" d="M114 0V700H188V0H114Z" />
<glyph unicode="J" horiz-adv-x="501" d="M189 -6Q130 -6 79 20T-4 94L39 144Q68 102 106 80T190 58Q320 58 320 212V636H64V700H393V215Q393 104 342 49T189 -6Z" />
<glyph unicode="K" horiz-adv-x="711" d="M178 174L175 264L599 700H684L375 376L333 331L178 174ZM114 0V700H188V0H114ZM617 0L315 348L365 402L705 0H617Z" />
<glyph unicode="L" horiz-adv-x="589" d="M114 0V700H188V64H580V0H114Z" />
<glyph unicode="M" horiz-adv-x="955" d="M114 0V700H175L495 154H463L780 700H841V0H770V589H787L495 89H460L166 589H185V0H114Z" />
<glyph unicode="N" horiz-adv-x="813" d="M114 0V700H175L658 92H626V700H699V0H638L156 608H188V0H114Z" />
<glyph unicode="O" horiz-adv-x="839" d="M420 -6Q341 -6 274 20T157 95T80 208T52 350Q52 427 79 491T156 604T273 679T420 706Q499 706 566 680T682 605T759 492T787 350Q787 273 760 208T683 95T566 21T420 -6ZM420 60Q483 60 536 81T629 142T691 234T713 350Q713
413 691 465T630 557T537 618T420 640Q357 640 303 619T210 558T148 466T125 350Q125 288 147 235T209 143T303 82T420 60Z" />
<glyph unicode="P" horiz-adv-x="718" d="M114 0V700H376Q465 700 529 672T627 590T662 460Q662 386 628 333T529 250T376 221H155L188 256V0H114ZM188 250L155 286H374Q479 286 533 331T588 460Q588 544 534 590T374 636H155L188 671V250Z" />
<glyph unicode="Q" horiz-adv-x="839" d="M420 -6Q341 -6 274 20T157 95T80 208T52 350Q52 427 79 491T156 604T273 679T420 706Q499 706 566 680T682 605T759 492T787 350Q787 273 760 208T683 95T566 21T420 -6ZM649 -139Q617 -139 587 -131T527 -106T464 -60T394
8L475 28Q506 -9 535 -33T593 -68T650 -80Q728 -80 783 -16L819 -59Q753 -139 649 -139ZM420 60Q483 60 536 81T629 143T691 235T713 350Q713 413 691 465T630 557T537 618T420 640Q357 640 303 619T210 558T148 466T125 350Q125 288 147 236T209 143T303 82T420
60Z" />
<glyph unicode="R" horiz-adv-x="723" d="M114 0V700H376Q465 700 529 672T627 590T662 460Q662 386 628 333T529 251T376 222H155L188 256V0H114ZM592 0L412 254H492L673 0H592ZM188 250L155 285H374Q479 285 533 331T588 460Q588 544 534 590T374 636H155L188 671V250Z" />
<glyph unicode="S" horiz-adv-x="615" d="M307 -6Q229 -6 158 19T47 85L76 142Q113 106 175 82T307 57Q373 57 414 73T475 118T495 180Q495 221 472 246T410 285T326 311T234 334T150 368T88 423T64 514Q64 566 91 609T176 679T322 706Q381 706 439 690T539 644L514
585Q469 615 419 629T321 643Q258 643 217 626T157 581T137 516Q137 475 160 450T222 411T307 386T398 362T482 329T544 274T568 185Q568 134 540 91T455 21T307 -6Z" />
<glyph unicode="T" horiz-adv-x="574" d="M250 0V636H4V700H570V636H324V0H250Z" />
<glyph unicode="U" horiz-adv-x="792" d="M396 -6Q262 -6 185 71T108 299V700H182V302Q182 178 238 119T396 60Q499 60 555 119T611 302V700H683V299Q683 148 607 71T396 -6Z" />
<glyph unicode="V" horiz-adv-x="698" d="M313 0L3 700H83L373 41H329L621 700H696L386 0H313Z" />
<glyph unicode="W" horiz-adv-x="1111" d="M273 0L37 700H113L334 41H296L524 700H592L817 41H781L1004 700H1075L839 0H761L546 625H566L350 0H273Z" />
<glyph unicode="X" horiz-adv-x="656" d="M17 0L304 388V331L34 700H119L346 392L313 391L540 700H620L353 336V388L639 0H553L311 329H342L102 0H17Z" />
<glyph unicode="Y" horiz-adv-x="635" d="M281 0V260L298 214L1 700H80L341 273H299L560 700H634L337 214L354 260V0H281Z" />
<glyph unicode="Z" horiz-adv-x="651" d="M45 0V51L531 664L539 636H52V700H607V649L122 36L113 64H619V0H45Z" />
<glyph unicode="[" horiz-adv-x="318" d="M114 -194V742H297V683H185V-135H297V-194H114Z" />
<glyph unicode="\" horiz-adv-x="335" d="M360 -100H295L-35 842H30L360 -100Z" />
<glyph unicode="]" horiz-adv-x="318" d="M204 -194H21V-135H133V683H21V742H204V-194Z" />
<glyph unicode="^" horiz-adv-x="576" d="M83 143L258 557H319L493 143H434L273 532H303L142 143H83Z" />
<glyph unicode="_" horiz-adv-x="500" d="M0 -48V0H500V-48H0Z" />
<glyph unicode="`" horiz-adv-x="600" d="M295 607L133 731H228L365 607H295Z" />
<glyph unicode="a" horiz-adv-x="590" d="M428 0V116L425 135V329Q425 396 388 432T276 468Q225 468 179 451T101 406L69 459Q109 493 165 511T283 530Q385 530 440 480T496 326V0H428ZM247 -5Q188 -5 145 14T78 68T55 148Q55 189 74 222T138 276T258 297H439V244H260Q184
244 155 217T125 150Q125 105 160 78T258 51Q318 51 361 78T425 158L441 109Q421 57 372 26T247 -5Z" />
<glyph unicode="b" horiz-adv-x="678" d="M370 -5Q301 -5 246 26T159 118T127 263Q127 349 159 408T247 499T370 530Q445 530 504 497T598 403T632 263Q632 184 598 124T505 29T370 -5ZM99 0V742H170V370L160 264L167 158V0H99ZM365 58Q421 58 465 83T535 155T561
263Q561 325 535 371T465 442T365 468Q309 468 265 443T195 371T169 263Q169 202 194 156T264 84T365 58Z" />
<glyph unicode="c" horiz-adv-x="563" d="M317 -5Q239 -5 178 29T81 124T46 263Q46 342 81 402T177 496T317 530Q384 530 438 504T523 426L470 390Q443 430 403 449T316 468Q260 468 215 443T144 371T118 263Q118 201 144 155T215 84T316 58Q363 58 403 77T470
135L523 99Q492 48 438 22T317 -5Z" />
<glyph unicode="d" horiz-adv-x="678" d="M308 -5Q233 -5 174 29T80 123T46 263Q46 343 80 403T173 496T308 530Q377 530 431 499T518 409T551 263Q551 178 519 118T433 27T308 -5ZM313 58Q369 58 413 83T483 155T509 263Q509 325 484 371T414 442T313 468Q258
468 214 443T144 371T118 263Q118 202 144 156T214 84T313 58ZM511 0V158L518 264L508 370V742H579V0H511Z" />
<glyph unicode="e" horiz-adv-x="604" d="M322 -5Q240 -5 178 29T81 124T46 263Q46 341 79 401T171 495T303 530Q377 530 434 497T525 403T558 263Q558 258 558 253T557 241H100V294H519L491 273Q491 330 467 374T400 444T303 469Q249 469 206 444T139 374T115
271V260Q115 200 141 155T215 84T324 58Q372 58 413 75T485 127L525 81Q490 39 438 17T322 -5Z" />
<glyph unicode="f" horiz-adv-x="339" d="M111 0V591Q111 661 152 704T270 747Q300 747 328 739T375 714L351 661Q336 674 316 680T273 687Q228 687 204 662T180 588V508L182 475V0H111ZM17 466V525H342V466H17Z" />
<glyph unicode="g" horiz-adv-x="685" d="M323 -199Q251 -199 185 -178T78 -118L114 -64Q151 -97 205 -116T321 -136Q421 -136 468 -90T515 55V186L525 276L518 366V525H586V64Q586 -72 520 -135T323 -199ZM310 20Q235 20 175 52T81 143T46 276Q46 351 80 408T175
498T310 530Q380 530 436 501T525 415T558 276Q558 194 525 137T436 50T310 20ZM317 83Q375 83 420 107T491 175T517 276Q517 333 491 376T420 443T317 468Q260 468 215 444T144 376T118 276Q118 219 143 176T214 108T317 83Z" />
<glyph unicode="h" horiz-adv-x="676" d="M367 530Q431 530 479 506T555 431T583 305V0H512V298Q512 381 471 423T354 466Q298 466 257 444T193 379T170 276V0H99V742H170V381L156 408Q181 465 236 497T367 530Z" />
<glyph unicode="i" horiz-adv-x="269" d="M99 0V525H170V0H99ZM135 641Q113 641 98 656T83 692Q83 713 98 727T135 742Q157 742 172 728T187 693Q187 671 173 656T135 641Z" />
<glyph unicode="j" horiz-adv-x="274" d="M21 -199Q-11 -199 -40 -191T-90 -165L-65 -111Q-33 -138 17 -138Q59 -138 81 -113T104 -39V525H175V-39Q175 -112 136 -155T21 -199ZM140 641Q118 641 103 656T88 692Q88 713 103 727T140 742Q162 742 177 728T192 693Q192
671 178 656T140 641Z" />
<glyph unicode="k" horiz-adv-x="601" d="M155 136L157 227L484 525H571L340 304L300 270L155 136ZM99 0V742H170V0H99ZM506 0L287 273L333 328L593 0H506Z" />
<glyph unicode="l" horiz-adv-x="269" d="M99 0V742H170V0H99Z" />
<glyph unicode="m" horiz-adv-x="1061" d="M755 530Q819 530 866 506T940 431T967 305V0H896V298Q896 381 857 423T745 466Q691 466 652 444T591 379T569 276V0H498V298Q498 381 458 423T346 466Q293 466 253 444T192 379T170 276V0H99V525H167V383L156 408Q180
465 233 497T360 530Q437 530 491 492T561 376L533 387Q556 451 614 490T755 530Z" />
<glyph unicode="n" horiz-adv-x="676" d="M367 530Q431 530 479 506T555 431T583 305V0H512V298Q512 381 471 423T354 466Q298 466 257 444T193 379T170 276V0H99V525H167V381L156 408Q181 465 236 497T367 530Z" />
<glyph unicode="o" horiz-adv-x="627" d="M313 -5Q237 -5 177 29T81 124T46 263Q46 342 81 402T176 496T313 530Q391 530 451 496T546 402T581 263Q581 185 547 125T451 30T313 -5ZM313 58Q370 58 414 83T483 155T509 263Q509 325 484 371T414 442T314 468Q258
468 214 443T144 371T118 263Q118 202 144 156T214 84T313 58Z" />
<glyph unicode="p" horiz-adv-x="678" d="M370 -5Q302 -5 247 26T160 117T127 263Q127 349 159 408T246 499T370 530Q445 530 504 497T598 403T632 263Q632 183 598 123T505 29T370 -5ZM99 -194V525H167V367L160 262L170 156V-194H99ZM365 58Q421 58 465 83T535
155T561 263Q561 324 535 370T465 442T365 468Q309 468 265 442T195 370T169 263Q169 202 194 156T264 84T365 58Z" />
<glyph unicode="q" horiz-adv-x="678" d="M308 -5Q233 -5 174 29T80 123T46 263Q46 342 80 402T173 496T308 530Q378 530 432 499T519 409T551 263Q551 177 519 118T432 27T308 -5ZM313 58Q369 58 413 83T483 155T509 263Q509 324 484 370T414 442T313 468Q258
468 214 442T144 370T118 263Q118 202 144 156T214 84T313 58ZM508 -194V156L518 262L511 367V525H579V-194H508Z" />
<glyph unicode="r" horiz-adv-x="401" d="M99 0V525H167V382L160 407Q182 467 234 498T363 530V461Q359 461 355 461T347 462Q264 462 217 412T170 268V0H99Z" />
<glyph unicode="s" horiz-adv-x="488" d="M240 -5Q175 -5 117 13T26 60L58 116Q90 92 140 75T245 57Q320 57 353 80T386 143Q386 172 368 188T319 213T252 228T179 242T112 265T64 308T45 380Q45 423 69 457T139 510T253 530Q304 530 355 517T439 481L408 424Q373
448 333 458T253 469Q182 469 149 445T115 382Q115 352 133 335T182 309T249 293T322 279T389 256T438 215T457 145Q457 99 432 66T358 14T240 -5Z" />
<glyph unicode="t" horiz-adv-x="406" d="M265 -5Q191 -5 151 35T111 148V641H182V152Q182 106 205 81T273 56Q320 56 351 83L376 32Q355 13 326 4T265 -5ZM17 466V525H342V466H17Z" />
<glyph unicode="u" horiz-adv-x="672" d="M316 -5Q249 -5 199 20T122 95T94 220V525H165V228Q165 144 206 102T323 59Q378 59 418 81T480 147T502 250V525H573V0H505V144L516 118Q491 60 439 28T316 -5Z" />
<glyph unicode="v" horiz-adv-x="542" d="M234 0L1 525H75L289 38H254L471 525H541L307 0H234Z" />
<glyph unicode="w" horiz-adv-x="879" d="M206 0L8 525H76L256 38H225L410 525H471L654 38H623L806 525H871L672 0H605L429 458H450L273 0H206Z" />
<glyph unicode="x" horiz-adv-x="534" d="M19 0L241 288L240 253L29 525H109L282 300L252 301L425 525H503L290 250L291 288L515 0H434L251 240L279 236L99 0H19Z" />
<glyph unicode="y" horiz-adv-x="542" d="M103 -199Q66 -199 33 -187T-25 -151L8 -98Q28 -117 51 -127T104 -138Q139 -138 164 -119T213 -50L247 27L255 38L471 525H541L278 -63Q256 -114 230 -144T172 -186T103 -199ZM243 -15L1 525H75L289 43L243 -15Z" />
<glyph unicode="z" horiz-adv-x="511" d="M42 0V47L392 490L407 466H48V525H463V479L114 35L96 59H470V0H42Z" />
<glyph unicode="{" horiz-adv-x="334" d="M275 -194Q208 -194 174 -161T139 -61V193Q139 220 128 232T94 244H60V304H94Q116 304 127 316T139 355V609Q139 676 173 709T275 742H313V683H286Q248 683 229 662T210 603V356Q210 326 203 309T182 283T144 269V279Q167
275 181 266T203 239T210 192V-55Q210 -93 229 -114T286 -135H313V-194H275Z" />
<glyph unicode="|" horiz-adv-x="294" d="M114 -194V742H180V-194H114Z" />
<glyph unicode="}" horiz-adv-x="334" d="M58 -194H21V-135H48Q87 -135 105 -114T124 -55V192Q124 222 131 239T153 265T190 279V269Q168 274 153 283T131 309T124 356V603Q124 641 106 662T48 683H21V742H58Q126 742 160 709T195 609V355Q195 328 207 316T240
304H274V244H240Q219 244 207 232T195 193V-61Q195 -127 161 -160T58 -194Z" />
<glyph unicode="~" horiz-adv-x="575" d="M389 272Q353 272 327 287T278 323T235 358T188 373Q153 373 133 348T110 278H62Q64 353 98 391T186 429Q222 429 248 414T296 378T339 343T387 327Q422 327 443 353T465 423H513Q511 348 477 310T389 272Z" />
<glyph unicode="&#xa0;" horiz-adv-x="262" />
<glyph unicode="&#xa1;" horiz-adv-x="260" d="M157 315L172 -154H88L102 315H157ZM130 530Q153 530 167 515T182 478Q182 457 168 442T130 427Q108 427 93 442T77 478Q77 500 92 515T130 530Z" />
<glyph unicode="&#xa2;" horiz-adv-x="563" d="M286 -120V645H335V-120H286ZM317 -5Q239 -5 178 29T81 124T46 263Q46 342 81 402T177 496T317 530Q384 530 438 504T523 426L470 390Q443 430 403 449T316 468Q260 468 215 443T144 371T118 263Q118 201 144 155T215
84T316 58Q363 58 403 77T470 135L523 99Q492 48 438 22T317 -5Z" />
<glyph unicode="&#xa3;" horiz-adv-x="637" d="M143 13V459Q143 534 174 589T268 675T421 706Q482 706 531 694T621 653L594 592Q558 618 513 629T415 640Q315 640 266 593T216 459V13H143ZM30 0V64H608V0H30ZM30 325V375H493V325H30Z" />
<glyph unicode="&#xa4;" horiz-adv-x="700" d="M151 473L34 590L75 635L193 518L151 473ZM75 0L34 45L151 162L193 117L75 0ZM624 0L507 117L549 162L666 45L624 0ZM549 473L507 518L624 635L666 590L549 473ZM350 52Q294 52 244 73T157 130T98 215T76 318Q76
373 97 421T156 507T244 565T350 586Q407 586 457 565T545 507T604 422T626 318Q626 263 605 215T545 131T457 73T350 52ZM350 112Q410 112 459 140T537 214T567 318Q567 375 538 422T459 497T350 526Q291 526 242 498T164 422T135 318Q135 261 164 215T242 140T350
112Z" />
<glyph unicode="&#xa5;" horiz-adv-x="695" d="M311 0V304L328 255L1 700H79L370 306H327L618 700H694L367 255L384 304V0H311ZM91 130V174H604V130H91ZM91 268V312H604V268H91Z" />
<glyph unicode="&#xa6;" horiz-adv-x="294" d="M114 392V742H180V392H114ZM114 -194V156H180V-194H114Z" />
<glyph unicode="&#xa7;" horiz-adv-x="490" d="M340 147L288 185Q332 192 361 218T391 288Q391 320 373 340T326 371T262 391T192 410T128 436T80 479T62 549Q62 597 88 632T162 686T279 705Q310 705 344 699T408 682T459 654L435 600Q401 624 360 635T274 647Q202
647 164 623T126 551Q126 520 144 502T191 472T255 452T325 433T389 406T436 361T454 288Q454 237 422 200T340 147ZM230 -105Q192 -105 153 -97T82 -73T28 -39L52 16Q83 -10 131 -28T232 -47Q295 -47 331 -23T367 49Q367 81 349 99T303 129T239 149T169 167T104
193T57 238T39 310Q39 364 71 400T152 452L202 415Q160 408 131 382T102 313Q102 280 120 261T167 229T231 209T302 191T366 165T413 121T431 50Q431 3 406 -32T336 -86T230 -105Z" />
<glyph unicode="&#xa8;" horiz-adv-x="600" d="M389 630Q372 630 359 642T346 673Q346 692 359 704T389 716Q407 716 419 704T432 673Q432 654 420 642T389 630ZM211 630Q193 630 181 642T168 673Q168 692 180 704T211 716Q228 716 241 704T254 673Q254 654 241
642T211 630Z" />
<glyph unicode="&#xa9;" horiz-adv-x="809" d="M404 -3Q329 -3 265 24T153 99T79 212T52 350Q52 424 79 488T154 600T266 676T406 703Q481 703 545 677T657 602T731 491T758 352Q758 277 731 213T656 100T543 24T404 -3ZM403 34Q471 34 528 58T628 126T696 227T720
352Q720 419 697 476T631 576T531 642T406 666Q338 666 280 642T180 575T113 474T89 350Q89 284 113 227T179 126T279 58T403 34ZM413 142Q353 142 306 168T232 242T205 350Q205 411 232 458T306 531T413 558Q464 558 505 538T572 481L529 449Q508 478 478 492T412
506Q369 506 336 487T282 432T262 350Q262 303 282 268T335 214T412 194Q448 194 478 208T529 251L572 220Q547 183 506 163T413 142Z" />
<glyph unicode="&#xaa;" horiz-adv-x="401" d="M281 430V498L277 509V624Q277 665 254 684T185 704Q152 704 123 695T72 667L51 702Q76 722 113 734T190 746Q258 746 294 716T330 622V430H281ZM164 427Q104 427 73 453T41 518Q41 556 71 582T172 608H287V573H178Q131
573 111 559T91 521Q91 494 113 479T175 464Q214 464 239 479T277 522L287 490Q276 462 245 445T164 427Z" />
<glyph unicode="&#xab;" horiz-adv-x="477" d="M195 74L50 263L195 452H261L119 263L261 74H195ZM373 74L228 263L373 452H439L297 263L439 74H373Z" />
<glyph unicode="&#xac;" horiz-adv-x="575" d="M505 380V141H442V321H70V380H505Z" />
<glyph unicode="&#xad;" horiz-adv-x="382" d="M60 240V302H322V240H60Z" />
<glyph unicode="&#xae;" horiz-adv-x="809" d="M404 -3Q329 -3 265 24T153 99T79 212T52 350Q52 424 79 488T154 600T266 676T406 703Q481 703 545 677T657 602T731 491T758 352Q758 277 731 213T656 100T543 24T404 -3ZM533 148L432 304H486L587 148H533ZM403
34Q471 34 528 58T628 126T696 227T720 352Q720 419 697 476T631 576T531 642T406 666Q338 666 280 642T180 575T113 474T89 350Q89 284 113 227T179 126T279 58T403 34ZM267 148V552H423Q498 552 540 516T583 418Q583 354 541 318T423 282H319V148H267ZM318 326H420Q473
326 502 350T532 418Q532 461 503 484T420 508H318V326Z" />
<glyph unicode="&#xaf;" horiz-adv-x="600" d="M146 645V692H454V645H146Z" />
<glyph unicode="&#xb0;" horiz-adv-x="419" d="M209 388Q165 388 129 409T71 466T50 547Q50 591 71 627T128 684T209 705Q254 705 290 684T348 627T369 547Q369 503 348 467T291 410T209 388ZM210 430Q242 430 268 446T310 488T325 547Q325 580 310 606T269 648T210
663Q177 663 151 648T109 607T94 547Q94 514 109 488T150 446T210 430Z" />
<glyph unicode="&#xb1;" horiz-adv-x="575" d="M70 0V59H505V0H70ZM256 173V591H319V173H256ZM70 352V412H505V352H70Z" />
<glyph unicode="&#xb2;" horiz-adv-x="430" d="M48 327V362L238 530Q277 565 289 586T302 629Q302 658 276 679T191 700Q153 700 121 689T69 654L32 683Q58 714 99 730T194 746Q275 746 315 713T356 632Q356 601 341 573T278 503L107 352L90 372H376V327H48Z" />
<glyph unicode="&#xb3;" horiz-adv-x="430" d="M202 323Q147 323 101 337T31 376L54 416Q77 396 116 383T202 369Q263 369 292 390T321 447Q321 483 293 504T204 525H162V562L305 717L313 697H42V742H355V707L213 551L190 566H213Q292 566 333 533T375 447Q375
413 356 385T298 340T202 323Z" />
<glyph unicode="&#xb4;" horiz-adv-x="600" d="M235 607L372 731H467L305 607H235Z" />
<glyph unicode="&#xb5;" horiz-adv-x="678" d="M99 -194V525H170V228Q170 144 211 102T329 59Q384 59 424 81T486 147T508 250V525H579V0H511V146L523 127Q508 82 479 53T411 9T330 -5Q268 -5 224 20T156 95L170 127V-194H99Z" />
<glyph unicode="&#xb6;" horiz-adv-x="632" d="M226 -100V395Q166 396 120 417T47 478T21 569Q21 623 47 661T122 721T236 742H518V-100H458V686H286V-100H226Z" />
<glyph unicode="&#xb7;" horiz-adv-x="252" d="M126 216Q104 216 89 232T73 271Q73 295 88 310T126 326Q149 326 164 311T179 271Q179 248 164 232T126 216Z" />
<glyph unicode="&#xb8;" horiz-adv-x="600" d="M278 -220Q253 -220 233 -214T194 -197L211 -159Q226 -168 242 -173T277 -178Q307 -178 323 -166T339 -131Q339 -111 324 -98T277 -85H254L278 6H321L306 -52Q347 -55 369 -77T391 -133Q391 -173 360 -196T278 -220Z" />
<glyph unicode="&#xb9;" horiz-adv-x="430" d="M260 338L227 372H368V327H84V372H238L205 338V722L229 697H91V742H260V338Z" />
<glyph unicode="&#xba;" horiz-adv-x="414" d="M207 427Q157 427 118 447T57 504T34 587Q34 634 56 669T118 725T207 746Q257 746 296 726T357 670T380 587Q380 541 358 505T296 448T207 427ZM207 472Q260 472 294 504T328 587Q328 639 294 670T207 702Q154 702
120 670T86 587Q86 536 120 504T207 472Z" />
<glyph unicode="&#xbb;" horiz-adv-x="477" d="M104 74H38L180 263L38 452H104L249 263L104 74ZM282 74H216L358 263L216 452H282L427 263L282 74Z" />
<glyph unicode="&#xbc;" horiz-adv-x="1029" d="M260 296L227 330H368V285H84V330H238L205 296V680L229 655H91V700H260V296ZM246 0L724 700H783L305 0H246ZM626 106V142L832 415H892L685 142L658 150H999V106H626ZM859 0V106L863 150V241H911V0H859Z" />
<glyph unicode="&#xbd;" horiz-adv-x="1029" d="M260 296L227 330H368V285H84V330H238L205 296V680L229 655H91V700H260V296ZM246 0L724 700H783L305 0H246ZM647 0V35L837 203Q876 238 888 259T901 302Q901 331 875 352T790 373Q752 373 720 362T668 327L631 356Q657
387 698 403T793 419Q874 419 914 386T955 305Q955 274 940 246T877 176L706 25L689 45H975V0H647Z" />
<glyph unicode="&#xbe;" horiz-adv-x="1029" d="M202 281Q147 281 101 295T31 334L54 374Q77 354 116 341T202 327Q263 327 292 348T321 405Q321 441 293 462T204 483H162V520L305 675L313 655H42V700H355V665L213 509L190 524H213Q292 524 333 491T375 405Q375
371 356 343T298 298T202 281ZM246 0L724 700H783L305 0H246ZM626 106V142L832 415H892L685 142L658 150H999V106H626ZM859 0V106L863 150V241H911V0H859Z" />
<glyph unicode="&#xbf;" horiz-adv-x="567" d="M305 -160Q235 -160 184 -139T104 -80T75 8Q75 49 88 78T123 130T166 171T210 211T245 256T258 315H332Q332 276 319 248T285 197T241 155T197 115T163 71T149 16Q149 -31 191 -64T310 -97Q374 -97 421 -77T501 -16L554
-56Q514 -105 452 -132T305 -160ZM295 427Q273 427 258 442T243 478Q243 500 258 515T295 530Q317 530 332 515T347 478Q347 457 332 442T295 427Z" />
<glyph unicode="&#xc0;" horiz-adv-x="717" d="M2 0L322 700H395L715 0H637L343 657H373L79 0H2ZM128 187L150 247H557L579 187H128ZM354 757L192 881H287L424 757H354Z" />
<glyph unicode="&#xc1;" horiz-adv-x="717" d="M2 0L322 700H395L715 0H637L343 657H373L79 0H2ZM128 187L150 247H557L579 187H128ZM294 757L431 881H526L364 757H294Z" />
<glyph unicode="&#xc2;" horiz-adv-x="717" d="M2 0L322 700H395L715 0H637L343 657H373L79 0H2ZM128 187L150 247H557L579 187H128ZM194 757L323 881H395L524 757H458L331 863H387L260 757H194Z" />
<glyph unicode="&#xc3;" horiz-adv-x="717" d="M2 0L322 700H395L715 0H637L343 657H373L79 0H2ZM128 187L150 247H557L579 187H128ZM427 763Q404 763 386 773T354 796T325 820T296 831Q273 831 260 814T244 767H201Q203 817 227 847T291 877Q314 877 332 867T365
843T393 819T422 809Q445 809 459 825T474 871H517Q516 823 491 793T427 763Z" />
<glyph unicode="&#xc4;" horiz-adv-x="717" d="M2 0L322 700H395L715 0H637L343 657H373L79 0H2ZM128 187L150 247H557L579 187H128ZM448 780Q431 780 418 792T405 823Q405 842 418 854T448 866Q466 866 478 854T491 823Q491 804 479 792T448 780ZM270 780Q252
780 240 792T227 823Q227 842 239 854T270 866Q287 866 300 854T313 823Q313 804 300 792T270 780Z" />
<glyph unicode="&#xc5;" horiz-adv-x="717" d="M2 0L322 700H395L715 0H637L343 657H373L79 0H2ZM128 187L150 247H557L579 187H128ZM358 770Q328 770 305 784T268 821T254 872Q254 900 268 924T305 962T358 977Q388 977 411 963T449 924T463 872Q463 844 449
821T412 784T358 770ZM358 805Q388 805 407 824T426 872Q426 901 407 921T358 942Q329 942 310 922T291 872Q291 843 309 824T358 805Z" />
<glyph unicode="&#xc6;" horiz-adv-x="1033" d="M2 0L429 700H502V636H436L482 666L79 0H2ZM169 187L177 247H502V187H169ZM544 387H915V324H544V387ZM552 64H973V0H478V700H958V636H552V64Z" />
<glyph unicode="&#xc7;" horiz-adv-x="719" d="M418 -6Q339 -6 272 20T156 95T80 208T52 350Q52 427 79 492T156 605T273 679T419 706Q495 706 562 681T675 604L628 557Q585 601 533 620T421 640Q358 640 304 619T210 558T148 466T125 350Q125 287 147 235T210
143T304 82T421 60Q481 60 533 80T628 144L675 97Q629 46 562 20T418 -6ZM382 -220Q357 -220 337 -214T298 -197L315 -159Q330 -168 346 -173T381 -178Q411 -178 427 -166T443 -131Q443 -111 428 -98T381 -85H358L382 6H425L410 -52Q451 -55 473 -77T495 -133Q495
-173 464 -196T382 -220Z" />
<glyph unicode="&#xc8;" horiz-adv-x="669" d="M180 387H550V324H180V387ZM188 64H609V0H114V700H594V636H188V64ZM350 757L188 881H283L420 757H350Z" />
<glyph unicode="&#xc9;" horiz-adv-x="669" d="M180 387H550V324H180V387ZM188 64H609V0H114V700H594V636H188V64ZM290 757L427 881H522L360 757H290Z" />
<glyph unicode="&#xca;" horiz-adv-x="669" d="M180 387H550V324H180V387ZM188 64H609V0H114V700H594V636H188V64ZM190 757L319 881H391L520 757H454L327 863H383L256 757H190Z" />
<glyph unicode="&#xcb;" horiz-adv-x="669" d="M180 387H550V324H180V387ZM188 64H609V0H114V700H594V636H188V64ZM444 780Q427 780 414 792T401 823Q401 842 414 854T444 866Q462 866 474 854T487 823Q487 804 475 792T444 780ZM266 780Q248 780 236 792T223
823Q223 842 235 854T266 866Q283 866 296 854T309 823Q309 804 296 792T266 780Z" />
<glyph unicode="&#xcc;" horiz-adv-x="302" d="M114 0V700H188V0H114ZM146 757L-16 881H79L216 757H146Z" />
<glyph unicode="&#xcd;" horiz-adv-x="302" d="M114 0V700H188V0H114ZM86 757L223 881H318L156 757H86Z" />
<glyph unicode="&#xce;" horiz-adv-x="302" d="M114 0V700H188V0H114ZM-14 757L115 881H187L316 757H250L123 863H179L52 757H-14Z" />
<glyph unicode="&#xcf;" horiz-adv-x="302" d="M114 0V700H188V0H114ZM240 780Q223 780 210 792T197 823Q197 842 210 854T240 866Q258 866 270 854T283 823Q283 804 271 792T240 780ZM62 780Q44 780 32 792T19 823Q19 842 31 854T62 866Q79 866 92 854T105 823Q105
804 92 792T62 780Z" />
<glyph unicode="&#xd0;" horiz-adv-x="831" d="M119 0V700H404Q516 700 600 656T732 532T779 350Q779 247 732 168T601 45T404 0H119ZM193 64H400Q493 64 561 100T668 201T706 350Q706 435 668 499T562 599T400 636H193V64ZM269 327V386H657V327H269Z" />
<glyph unicode="&#xd1;" horiz-adv-x="813" d="M114 0V700H175L658 92H626V700H699V0H638L156 608H188V0H114ZM474 763Q451 763 433 773T401 796T372 820T343 831Q320 831 307 814T291 767H248Q250 817 274 847T338 877Q361 877 379 867T412 843T440 819T469 809Q492
809 506 825T521 871H564Q563 823 538 793T474 763Z" />
<glyph unicode="&#xd2;" horiz-adv-x="839" d="M420 -6Q341 -6 274 20T157 95T80 208T52 350Q52 427 79 491T156 604T273 679T420 706Q499 706 566 680T682 605T759 492T787 350Q787 273 760 208T683 95T566 21T420 -6ZM420 60Q483 60 536 81T629 142T691 234T713
350Q713 413 691 465T630 557T537 618T420 640Q357 640 303 619T210 558T148 466T125 350Q125 288 147 235T209 143T303 82T420 60ZM415 757L253 881H348L485 757H415Z" />
<glyph unicode="&#xd3;" horiz-adv-x="839" d="M420 -6Q341 -6 274 20T157 95T80 208T52 350Q52 427 79 491T156 604T273 679T420 706Q499 706 566 680T682 605T759 492T787 350Q787 273 760 208T683 95T566 21T420 -6ZM420 60Q483 60 536 81T629 142T691 234T713
350Q713 413 691 465T630 557T537 618T420 640Q357 640 303 619T210 558T148 466T125 350Q125 288 147 235T209 143T303 82T420 60ZM355 757L492 881H587L425 757H355Z" />
<glyph unicode="&#xd4;" horiz-adv-x="839" d="M420 -6Q341 -6 274 20T157 95T80 208T52 350Q52 427 79 491T156 604T273 679T420 706Q499 706 566 680T682 605T759 492T787 350Q787 273 760 208T683 95T566 21T420 -6ZM420 60Q483 60 536 81T629 142T691 234T713
350Q713 413 691 465T630 557T537 618T420 640Q357 640 303 619T210 558T148 466T125 350Q125 288 147 235T209 143T303 82T420 60ZM255 757L384 881H456L585 757H519L392 863H448L321 757H255Z" />
<glyph unicode="&#xd5;" horiz-adv-x="839" d="M420 -6Q341 -6 274 20T157 95T80 208T52 350Q52 427 79 491T156 604T273 679T420 706Q499 706 566 680T682 605T759 492T787 350Q787 273 760 208T683 95T566 21T420 -6ZM420 60Q483 60 536 81T629 142T691 234T713
350Q713 413 691 465T630 557T537 618T420 640Q357 640 303 619T210 558T148 466T125 350Q125 288 147 235T209 143T303 82T420 60ZM488 763Q465 763 447 773T415 796T386 820T357 831Q334 831 321 814T305 767H262Q264 817 288 847T352 877Q375 877 393 867T426
843T454 819T483 809Q506 809 520 825T535 871H578Q577 823 552 793T488 763Z" />
<glyph unicode="&#xd6;" horiz-adv-x="839" d="M420 -6Q341 -6 274 20T157 95T80 208T52 350Q52 427 79 491T156 604T273 679T420 706Q499 706 566 680T682 605T759 492T787 350Q787 273 760 208T683 95T566 21T420 -6ZM420 60Q483 60 536 81T629 142T691 234T713
350Q713 413 691 465T630 557T537 618T420 640Q357 640 303 619T210 558T148 466T125 350Q125 288 147 235T209 143T303 82T420 60ZM509 780Q492 780 479 792T466 823Q466 842 479 854T509 866Q527 866 539 854T552 823Q552 804 540 792T509 780ZM331 780Q313 780
301 792T288 823Q288 842 300 854T331 866Q348 866 361 854T374 823Q374 804 361 792T331 780Z" />
<glyph unicode="&#xd7;" horiz-adv-x="575" d="M114 217L421 526L461 483L154 174L114 217ZM114 483L154 526L461 217L421 174L114 483Z" />
<glyph unicode="&#xd8;" horiz-adv-x="839" d="M420 -6Q341 -6 274 20T157 95T80 208T52 350Q52 427 79 491T156 604T273 679T420 706Q499 706 566 680T682 605T759 492T787 350Q787 273 760 208T683 95T566 21T420 -6ZM420 60Q483 60 536 81T629 142T691 234T713
350Q713 413 691 465T630 557T537 618T420 640Q357 640 303 619T210 558T148 466T125 350Q125 288 147 235T209 143T303 82T420 60ZM87 -70L694 770H753L147 -70H87Z" />
<glyph unicode="&#xd9;" horiz-adv-x="792" d="M396 -6Q262 -6 185 71T108 299V700H182V302Q182 178 238 119T396 60Q499 60 555 119T611 302V700H683V299Q683 148 607 71T396 -6ZM391 757L229 881H324L461 757H391Z" />
<glyph unicode="&#xda;" horiz-adv-x="792" d="M396 -6Q262 -6 185 71T108 299V700H182V302Q182 178 238 119T396 60Q499 60 555 119T611 302V700H683V299Q683 148 607 71T396 -6ZM331 757L468 881H563L401 757H331Z" />
<glyph unicode="&#xdb;" horiz-adv-x="792" d="M396 -6Q262 -6 185 71T108 299V700H182V302Q182 178 238 119T396 60Q499 60 555 119T611 302V700H683V299Q683 148 607 71T396 -6ZM231 757L360 881H432L561 757H495L368 863H424L297 757H231Z" />
<glyph unicode="&#xdc;" horiz-adv-x="792" d="M396 -6Q262 -6 185 71T108 299V700H182V302Q182 178 238 119T396 60Q499 60 555 119T611 302V700H683V299Q683 148 607 71T396 -6ZM485 780Q468 780 455 792T442 823Q442 842 455 854T485 866Q503 866 515 854T528
823Q528 804 516 792T485 780ZM307 780Q289 780 277 792T264 823Q264 842 276 854T307 866Q324 866 337 854T350 823Q350 804 337 792T307 780Z" />
<glyph unicode="&#xdd;" horiz-adv-x="635" d="M281 0V260L298 214L1 700H80L341 273H299L560 700H634L337 214L354 260V0H281ZM252 757L389 881H484L322 757H252Z" />
<glyph unicode="&#xde;" horiz-adv-x="718" d="M169 129V194H374Q479 194 533 240T588 370Q588 453 534 499T374 545H169V609H376Q465 609 529 580T627 498T662 370Q662 295 628 241T529 158T376 129H169ZM114 0V700H188V0H114Z" />
<glyph unicode="&#xdf;" horiz-adv-x="668" d="M385 -5Q356 -5 326 -1T272 11L285 71Q306 64 329 61T382 57Q432 57 469 74T528 123T550 201Q550 269 502 306T375 343H317V404Q400 405 447 445T494 553Q494 612 454 648T340 685Q262 685 216 640T170 504V0H99V498Q99
581 130 636T215 719T340 747Q409 747 459 722T536 654T563 556Q563 511 546 476T501 416T439 378T370 365L398 395Q462 395 512 372T592 306T622 199Q622 135 591 90T507 20T385 -5Z" />
<glyph unicode="&#xe0;" horiz-adv-x="590" d="M428 0V116L425 135V329Q425 396 388 432T276 468Q225 468 179 451T101 406L69 459Q109 493 165 511T283 530Q385 530 440 480T496 326V0H428ZM247 -5Q188 -5 145 14T78 68T55 148Q55 189 74 222T138 276T258 297H439V244H260Q184
244 155 217T125 150Q125 105 160 78T258 51Q318 51 361 78T425 158L441 109Q421 57 372 26T247 -5ZM536 607L374 731H469L606 607H536Z" />
<glyph unicode="&#xe1;" horiz-adv-x="590" d="M428 0V116L425 135V329Q425 396 388 432T276 468Q225 468 179 451T101 406L69 459Q109 493 165 511T283 530Q385 530 440 480T496 326V0H428ZM247 -5Q188 -5 145 14T78 68T55 148Q55 189 74 222T138 276T258 297H439V244H260Q184
244 155 217T125 150Q125 105 160 78T258 51Q318 51 361 78T425 158L441 109Q421 57 372 26T247 -5ZM476 607L613 731H708L546 607H476Z" />
<glyph unicode="&#xe2;" horiz-adv-x="590" d="M428 0V116L425 135V329Q425 396 388 432T276 468Q225 468 179 451T101 406L69 459Q109 493 165 511T283 530Q385 530 440 480T496 326V0H428ZM247 -5Q188 -5 145 14T78 68T55 148Q55 189 74 222T138 276T258 297H439V244H260Q184
244 155 217T125 150Q125 105 160 78T258 51Q318 51 361 78T425 158L441 109Q421 57 372 26T247 -5ZM376 607L505 731H577L706 607H640L513 713H569L442 607H376Z" />
<glyph unicode="&#xe3;" horiz-adv-x="590" d="M428 0V116L425 135V329Q425 396 388 432T276 468Q225 468 179 451T101 406L69 459Q109 493 165 511T283 530Q385 530 440 480T496 326V0H428ZM247 -5Q188 -5 145 14T78 68T55 148Q55 189 74 222T138 276T258 297H439V244H260Q184
244 155 217T125 150Q125 105 160 78T258 51Q318 51 361 78T425 158L441 109Q421 57 372 26T247 -5ZM609 613Q586 613 568 623T536 646T507 670T478 681Q455 681 442 664T426 617H383Q385 667 409 697T473 727Q496 727 514 717T547 693T575 669T604 659Q627 659
641 675T656 721H699Q698 673 673 643T609 613Z" />
<glyph unicode="&#xe4;" horiz-adv-x="590" d="M428 0V116L425 135V329Q425 396 388 432T276 468Q225 468 179 451T101 406L69 459Q109 493 165 511T283 530Q385 530 440 480T496 326V0H428ZM247 -5Q188 -5 145 14T78 68T55 148Q55 189 74 222T138 276T258 297H439V244H260Q184
244 155 217T125 150Q125 105 160 78T258 51Q318 51 361 78T425 158L441 109Q421 57 372 26T247 -5ZM630 630Q613 630 600 642T587 673Q587 692 600 704T630 716Q648 716 660 704T673 673Q673 654 661 642T630 630ZM452 630Q434 630 422 642T409 673Q409 692 421
704T452 716Q469 716 482 704T495 673Q495 654 482 642T452 630Z" />
<glyph unicode="&#xe5;" horiz-adv-x="590" d="M428 0V116L425 135V329Q425 396 388 432T276 468Q225 468 179 451T101 406L69 459Q109 493 165 511T283 530Q385 530 440 480T496 326V0H428ZM247 -5Q188 -5 145 14T78 68T55 148Q55 189 74 222T138 276T258 297H439V244H260Q184
244 155 217T125 150Q125 105 160 78T258 51Q318 51 361 78T425 158L441 109Q421 57 372 26T247 -5ZM540 595Q510 595 487 609T450 646T436 697Q436 725 450 749T487 787T540 802Q570 802 593 788T631 749T645 697Q645 669 631 646T594 609T540 595ZM540 630Q570
630 589 649T608 697Q608 726 589 746T540 767Q511 767 492 747T473 697Q473 668 491 649T540 630Z" />
<glyph unicode="&#xe6;" horiz-adv-x="986" d="M254 -5Q160 -5 108 38T55 150Q55 189 74 222T138 275T258 296H437V243H260Q184 243 155 217T125 151Q125 105 160 78T259 51Q335 51 380 91T425 201V329Q425 396 388 432T276 468Q225 468 179 451T101 406L69 459Q109
493 165 511T282 530Q372 530 423 492T487 378L455 384Q485 451 545 490T684 530Q739 530 785 511T866 456T920 373T940 267Q940 260 940 255T938 243H482V296H900L871 273Q871 334 846 377T777 445T683 469Q633 469 590 445T522 377T496 271V260Q496 200 522 155T595
84T704 58Q753 58 793 75T865 127L905 81Q870 38 818 17T702 -5Q642 -5 590 15T498 76T438 179L484 178Q474 110 440 70T356 13T254 -5Z" />
<glyph unicode="&#xe7;" horiz-adv-x="563" d="M317 -5Q239 -5 178 29T81 124T46 263Q46 342 81 402T177 496T317 530Q384 530 438 504T523 426L470 390Q443 430 403 449T316 468Q260 468 215 443T144 371T118 263Q118 201 144 155T215 84T316 58Q363 58 403 77T470
135L523 99Q492 48 438 22T317 -5ZM531 -220Q506 -220 486 -214T447 -197L464 -159Q479 -168 495 -173T530 -178Q560 -178 576 -166T592 -131Q592 -111 577 -98T530 -85H507L531 6H574L559 -52Q600 -55 622 -77T644 -133Q644 -173 613 -196T531 -220Z" />
<glyph unicode="&#xe8;" horiz-adv-x="604" d="M322 -5Q240 -5 178 29T81 124T46 263Q46 341 79 401T171 495T303 530Q377 530 434 497T525 403T558 263Q558 258 558 253T557 241H100V294H519L491 273Q491 330 467 374T400 444T303 469Q249 469 206 444T139 374T115
271V260Q115 200 141 155T215 84T324 58Q372 58 413 75T485 127L525 81Q490 39 438 17T322 -5ZM297 607L135 731H230L367 607H297Z" />
<glyph unicode="&#xe9;" horiz-adv-x="604" d="M322 -5Q240 -5 178 29T81 124T46 263Q46 341 79 401T171 495T303 530Q377 530 434 497T525 403T558 263Q558 258 558 253T557 241H100V294H519L491 273Q491 330 467 374T400 444T303 469Q249 469 206 444T139 374T115
271V260Q115 200 141 155T215 84T324 58Q372 58 413 75T485 127L525 81Q490 39 438 17T322 -5ZM237 607L374 731H469L307 607H237Z" />
<glyph unicode="&#xea;" horiz-adv-x="604" d="M322 -5Q240 -5 178 29T81 124T46 263Q46 341 79 401T171 495T303 530Q377 530 434 497T525 403T558 263Q558 258 558 253T557 241H100V294H519L491 273Q491 330 467 374T400 444T303 469Q249 469 206 444T139 374T115
271V260Q115 200 141 155T215 84T324 58Q372 58 413 75T485 127L525 81Q490 39 438 17T322 -5ZM137 607L266 731H338L467 607H401L274 713H330L203 607H137Z" />
<glyph unicode="&#xeb;" horiz-adv-x="604" d="M322 -5Q240 -5 178 29T81 124T46 263Q46 341 79 401T171 495T303 530Q377 530 434 497T525 403T558 263Q558 258 558 253T557 241H100V294H519L491 273Q491 330 467 374T400 444T303 469Q249 469 206 444T139 374T115
271V260Q115 200 141 155T215 84T324 58Q372 58 413 75T485 127L525 81Q490 39 438 17T322 -5ZM391 630Q374 630 361 642T348 673Q348 692 361 704T391 716Q409 716 421 704T434 673Q434 654 422 642T391 630ZM213 630Q195 630 183 642T170 673Q170 692 182 704T213
716Q230 716 243 704T256 673Q256 654 243 642T213 630Z" />
<glyph unicode="&#xec;" horiz-adv-x="269" d="M99 0V525H170V0H99ZM130 607L-32 731H63L200 607H130Z" />
<glyph unicode="&#xed;" horiz-adv-x="269" d="M99 0V525H170V0H99ZM70 607L207 731H302L140 607H70Z" />
<glyph unicode="&#xee;" horiz-adv-x="269" d="M99 0V525H170V0H99ZM-5 607L100 731H170L275 607H211L111 713H159L59 607H-5Z" />
<glyph unicode="&#xef;" horiz-adv-x="269" d="M99 0V525H170V0H99ZM201 630Q184 630 172 642T160 673Q160 690 172 702T201 715Q219 715 231 703T243 673Q243 655 231 643T201 630ZM69 630Q51 630 39 642T27 673Q27 690 39 702T69 715Q87 715 98 703T110 673Q110
655 99 643T69 630Z" />
<glyph unicode="&#xf0;" horiz-adv-x="633" d="M292 -6Q221 -6 166 21T78 98T46 215Q46 282 78 332T166 409T296 436Q356 436 405 414T487 350T528 246L501 237Q510 269 512 302T515 362Q515 459 483 525T392 624T253 658Q210 658 173 652T106 636L94 697Q125
706 166 712T253 718Q354 718 428 676T545 552T587 347Q587 239 553 160T453 37T292 -6ZM296 55Q357 55 399 78T464 137T486 215Q486 261 463 297T398 354T302 375Q216 375 167 331T118 215Q118 167 140 131T203 75T296 55ZM152 493L132 542L528 707L548 658L152
493Z" />
<glyph unicode="&#xf1;" horiz-adv-x="676" d="M367 530Q431 530 479 506T555 431T583 305V0H512V298Q512 381 471 423T354 466Q298 466 257 444T193 379T170 276V0H99V525H167V381L156 408Q181 465 236 497T367 530ZM408 613Q385 613 367 623T335 646T306 670T277
681Q254 681 241 664T225 617H182Q184 667 208 697T272 727Q295 727 313 717T346 693T374 669T403 659Q426 659 440 675T455 721H498Q497 673 472 643T408 613Z" />
<glyph unicode="&#xf2;" horiz-adv-x="627" d="M313 -5Q237 -5 177 29T81 124T46 263Q46 342 81 402T176 496T313 530Q391 530 451 496T546 402T581 263Q581 185 547 125T451 30T313 -5ZM313 58Q370 58 414 83T483 155T509 263Q509 325 484 371T414 442T314 468Q258
468 214 443T144 371T118 263Q118 202 144 156T214 84T313 58ZM308 607L146 731H241L378 607H308Z" />
<glyph unicode="&#xf3;" horiz-adv-x="627" d="M313 -5Q237 -5 177 29T81 124T46 263Q46 342 81 402T176 496T313 530Q391 530 451 496T546 402T581 263Q581 185 547 125T451 30T313 -5ZM313 58Q370 58 414 83T483 155T509 263Q509 325 484 371T414 442T314 468Q258
468 214 443T144 371T118 263Q118 202 144 156T214 84T313 58ZM248 607L385 731H480L318 607H248Z" />
<glyph unicode="&#xf4;" horiz-adv-x="627" d="M313 -5Q237 -5 177 29T81 124T46 263Q46 342 81 402T176 496T313 530Q391 530 451 496T546 402T581 263Q581 185 547 125T451 30T313 -5ZM313 58Q370 58 414 83T483 155T509 263Q509 325 484 371T414 442T314 468Q258
468 214 443T144 371T118 263Q118 202 144 156T214 84T313 58ZM148 607L277 731H349L478 607H412L285 713H341L214 607H148Z" />
<glyph unicode="&#xf5;" horiz-adv-x="627" d="M313 -5Q237 -5 177 29T81 124T46 263Q46 342 81 402T176 496T313 530Q391 530 451 496T546 402T581 263Q581 185 547 125T451 30T313 -5ZM313 58Q370 58 414 83T483 155T509 263Q509 325 484 371T414 442T314 468Q258
468 214 443T144 371T118 263Q118 202 144 156T214 84T313 58ZM381 613Q358 613 340 623T308 646T279 670T250 681Q227 681 214 664T198 617H155Q157 667 181 697T245 727Q268 727 286 717T319 693T347 669T376 659Q399 659 413 675T428 721H471Q470 673 445 643T381
613Z" />
<glyph unicode="&#xf6;" horiz-adv-x="627" d="M313 -5Q237 -5 177 29T81 124T46 263Q46 342 81 402T176 496T313 530Q391 530 451 496T546 402T581 263Q581 185 547 125T451 30T313 -5ZM313 58Q370 58 414 83T483 155T509 263Q509 325 484 371T414 442T314 468Q258
468 214 443T144 371T118 263Q118 202 144 156T214 84T313 58ZM402 630Q385 630 372 642T359 673Q359 692 372 704T402 716Q420 716 432 704T445 673Q445 654 433 642T402 630ZM224 630Q206 630 194 642T181 673Q181 692 193 704T224 716Q241 716 254 704T267 673Q267
654 254 642T224 630Z" />
<glyph unicode="&#xf7;" horiz-adv-x="575" d="M70 320V379H505V320H70ZM287 110Q268 110 254 124T240 159Q240 180 254 193T287 207Q307 207 321 194T335 159Q335 138 321 124T287 110ZM287 493Q268 493 254 507T240 541Q240 563 254 576T287 590Q307 590 321
577T335 541Q335 521 321 507T287 493Z" />
<glyph unicode="&#xf8;" horiz-adv-x="627" d="M313 -5Q237 -5 177 29T81 124T46 263Q46 342 81 402T176 496T313 530Q391 530 451 496T546 402T581 263Q581 185 547 125T451 30T313 -5ZM313 58Q370 58 414 83T483 155T509 263Q509 325 484 371T414 442T314 468Q258
468 214 443T144 371T118 263Q118 202 144 156T214 84T313 58ZM67 185L510 850H557L115 185H67Z" />
<glyph unicode="&#xf9;" horiz-adv-x="672" d="M316 -5Q249 -5 199 20T122 95T94 220V525H165V228Q165 144 206 102T323 59Q378 59 418 81T480 147T502 250V525H573V0H505V144L516 118Q491 60 439 28T316 -5ZM329 607L167 731H262L399 607H329Z" />
<glyph unicode="&#xfa;" horiz-adv-x="672" d="M316 -5Q249 -5 199 20T122 95T94 220V525H165V228Q165 144 206 102T323 59Q378 59 418 81T480 147T502 250V525H573V0H505V144L516 118Q491 60 439 28T316 -5ZM269 607L406 731H501L339 607H269Z" />
<glyph unicode="&#xfb;" horiz-adv-x="672" d="M316 -5Q249 -5 199 20T122 95T94 220V525H165V228Q165 144 206 102T323 59Q378 59 418 81T480 147T502 250V525H573V0H505V144L516 118Q491 60 439 28T316 -5ZM169 607L298 731H370L499 607H433L306 713H362L235 607H169Z" />
<glyph unicode="&#xfc;" horiz-adv-x="672" d="M316 -5Q249 -5 199 20T122 95T94 220V525H165V228Q165 144 206 102T323 59Q378 59 418 81T480 147T502 250V525H573V0H505V144L516 118Q491 60 439 28T316 -5ZM423 630Q406 630 393 642T380 673Q380 692 393 704T423
716Q441 716 453 704T466 673Q466 654 454 642T423 630ZM245 630Q227 630 215 642T202 673Q202 692 214 704T245 716Q262 716 275 704T288 673Q288 654 275 642T245 630Z" />
<glyph unicode="&#xfd;" horiz-adv-x="542" d="M103 -199Q66 -199 33 -187T-25 -151L8 -98Q28 -117 51 -127T104 -138Q139 -138 164 -119T213 -50L247 27L255 38L471 525H541L278 -63Q256 -114 230 -144T172 -186T103 -199ZM243 -15L1 525H75L289 43L243 -15ZM448
607L585 731H680L518 607H448Z" />
<glyph unicode="&#xfe;" horiz-adv-x="678" d="M370 -5Q302 -5 247 26T160 117T127 263Q127 349 159 408T246 499T370 530Q445 530 504 497T598 403T632 263Q632 183 598 123T505 29T370 -5ZM99 -194V742H170V367L160 262L170 156V-194H99ZM365 58Q421 58 465
83T535 155T561 263Q561 324 535 370T465 442T365 468Q309 468 265 442T195 370T169 263Q169 202 194 156T264 84T365 58Z" />
<glyph unicode="&#xff;" horiz-adv-x="542" d="M103 -199Q66 -199 33 -187T-25 -151L8 -98Q28 -117 51 -127T104 -138Q139 -138 164 -119T213 -50L247 27L255 38L471 525H541L278 -63Q256 -114 230 -144T172 -186T103 -199ZM243 -15L1 525H75L289 43L243 -15ZM602
630Q585 630 572 642T559 673Q559 692 572 704T602 716Q620 716 632 704T645 673Q645 654 633 642T602 630ZM424 630Q406 630 394 642T381 673Q381 692 393 704T424 716Q441 716 454 704T467 673Q467 654 454 642T424 630Z" />
<glyph unicode="&#x2013;" horiz-adv-x="500" d="M0 246V297H500V246H0Z" />
<glyph unicode="&#x2014;" horiz-adv-x="1000" d="M0 246V297H1000V246H0Z" />
<glyph unicode="&#x2018;" horiz-adv-x="212" d="M156 742L112 557L104 600Q128 600 143 586T158 547Q158 523 143 508T106 493Q82 493 68 508T53 547Q53 556 54 563T58 580T66 604L108 742H156Z" />
<glyph unicode="&#x2019;" horiz-adv-x="212" d="M56 498L100 682L108 640Q85 640 70 654T54 693Q54 717 69 732T107 747Q130 747 144 732T159 693Q159 685 158 677T155 660T147 636L104 498H56Z" />
<glyph unicode="&#x201a;" horiz-adv-x="212" d="M56 -146L100 39L108 -4Q85 -4 70 11T54 50Q54 74 69 89T107 104Q130 104 144 88T159 50Q159 42 158 34T154 16T146 -8L104 -146H56Z" />
<glyph unicode="&#x201c;" horiz-adv-x="382" d="M156 742L112 557L104 600Q128 600 143 586T158 547Q158 523 143 508T106 493Q82 493 68 508T53 547Q53 556 54 563T58 580T66 604L108 742H156ZM326 742L282 557L274 600Q298 600 313 586T328 547Q328 523 313
508T276 493Q252 493 238 508T223 547Q223 556 224 563T228 580T236 604L278 742H326Z" />
<glyph unicode="&#x201d;" horiz-adv-x="382" d="M56 498L100 682L108 640Q85 640 70 654T54 693Q54 717 69 732T107 747Q130 747 144 732T159 693Q159 685 158 677T155 660T147 636L104 498H56ZM226 498L270 682L278 640Q255 640 240 654T224 693Q224 717 239
732T277 747Q300 747 314 732T329 693Q329 685 328 677T325 660T317 636L274 498H226Z" />
<glyph unicode="&#x201e;" horiz-adv-x="382" d="M56 -146L100 39L108 -4Q85 -4 70 11T54 50Q54 74 69 89T107 104Q130 104 144 88T159 50Q159 42 158 34T154 16T146 -8L104 -146H56ZM226 -146L270 39L278 -4Q255 -4 240 11T224 50Q224 74 239 89T277 104Q300
104 314 88T329 50Q329 42 328 34T324 16T316 -8L274 -146H226Z" />
<glyph unicode="&#x2022;" horiz-adv-x="295" d="M148 197Q128 197 111 207T83 234T73 274Q73 295 83 312T110 339T148 349Q168 349 185 339T212 312T223 274Q223 251 213 234T185 207T148 197Z" />
<glyph unicode="&#x2039;" horiz-adv-x="299" d="M195 74L50 263L195 452H261L119 263L261 74H195Z" />
<glyph unicode="&#x203a;" horiz-adv-x="299" d="M104 74H38L180 263L38 452H104L249 263L104 74Z" />
</font>
</defs>
</svg>
